アットウィキロゴ
スーパー戦湯ババンバーン
すわひでお,秋成,かぼちゃ,藍月なくる,NU-KO by BEMANI Sound Team "八戸亀生羅"

BASIC

Level: 4
BPM: 188
Notes: 393

1
口口口口 |----|
口口口口 |----|
口口口口 |----|
口①①口 |①---|
2
口口口口 |①---|
口口口口 |----|
口①①口 |----|
口口口口 |----|
3
口口口口 |①---|
②口口① |----|
口口口口 |②---|
口口口口 |----|
4
口口口口 |①---|
口口口口 |----|
②口口① |②---|
口口口口 |----|
5
口口口口 |①---|
口口口口 |----|
口口口口 |②---|
②口口① |----|
6
口口口口 |①---|
口口②② |--②-|
口口①① |----|
口口口口 |----|
7
口口口口 |①---|
②②口口 |--②-|
①①口口 |----|
口口口口 |----|
8
口口②② |①---|
口口①① |--②-|
口口口口 |----|
口口口口 |----|
9
②②口口 |①---|
①①口口 |--②-|
口口口口 |----|
口口口口 |----|
10
口口口口 |①---|
口口口口 |----|
①口口① |②---|
口②②口 |----|
11
④②②④ |①---|
①③③① |②---|
口口口口 |③---|
口口口口 |④---|
12
口口口口 |①---|
口口口口 |----|
①口口① |②---|
口②②口 |----|
13
④②②④ |①---|
①③③① |②---|
口口口口 |③---|
口口口口 |④---|
14
口口口口 |----|
口口口口 |----|
口口①口 |①---|
口口口口 |----|
15
口口口口 |①---|
口口口口 |----|
口口口口 |----|
口口①口 |----|
16
口①口口 |①---|
口②口口 |----|
口口口口 |②---|
口口口口 |----|
17
口口口口 |①---|
口口口口 |----|
口①口口 |②---|
口②口口 |----|
18
口口口口 |①---|
口口口口 |----|
口②①口 |②---|
口口口口 |----|
19
口口口口 |①---|
②口口口 |----|
①口口口 |②---|
口口口口 |----|
20
口①①口 |①---|
口口口口 |----|
口②②口 |②---|
口口口口 |----|
21
①口口① |①---|
口口口口 |----|
口口口口 |----|
口口口口 |----|
22
口口口口 |①---|
口口口口 |----|
口①②口 |②---|
口口口口 |----|
23
口口口口 |①---|
口口口② |----|
口口口① |②---|
口口口口 |----|
24
口①①口 |①---|
口口口口 |----|
口②②口 |②---|
口口口口 |----|
25
①口口① |①---|
口口口口 |----|
口口口口 |----|
口口口口 |----|
26
口①口口 |①---|
口口②口 |----|
口口口口 |②---|
口口口口 |----|
27
口口口口 |①---|
口口口口 |----|
口①口口 |②---|
口口②口 |----|
28
口口口口 |①---|
口口口口 |----|
口口②口 |②---|
口①口口 |----|
29
口口②口 |①---|
口①口口 |----|
口口口口 |②---|
口口口口 |----|
30
①口口口 |①---|
口②口口 |②---|
口口③口 |③---|
口口口④ |④---|
31
口口口① |①---|
口口②口 |②---|
口③口口 |③---|
④口口口 |④---|
32
口①②口 |①---|
口③④口 |②---|
口口口口 |③---|
口口口口 |④---|
33
口口口口 |①---|
口口口口 |②---|
口①②口 |③---|
口③④口 |④---|
34
①②口口 |①---|
①②口口 |----|
口口口口 |②---|
口口口口 |----|
35
口口①② |①---|
口口①② |----|
口口口口 |②---|
口口口口 |----|
36
口口口口 |①---|
口口口口 |②---|
④口②口 |③---|
口③口① |④---|
37
口口口口 |①---|
口口口口 |②---|
口②口④ |③---|
①口③口 |④---|
38
口口②① |①---|
口口②① |----|
口口口口 |②---|
口口口口 |----|
39
②①口口 |①---|
②①口口 |----|
口口口口 |②---|
口口口口 |----|
40
口口口口 |①---|
口口口口 |②---|
①口③口 |③---|
口②口④ |④---|
41
口口口口 |①---|
口口口口 |②---|
口③口① |③---|
④口②口 |④---|
42
口②②口 |①---|
③①①③ |----|
口口口口 |②---|
口口口口 |③---|
43
口口口口 |①---|
口②②口 |----|
口①①口 |②---|
口口口口 |----|
44
口口口口 |①---|
口②②口 |----|
③①①③ |②---|
口口口口 |③---|
45
口口口口 |①---|
口口口口 |----|
口②②口 |②---|
口①①口 |----|
46
口口口① |①---|
口口口② |②---|
口口口③ |③---|
口口口④ |④---|
47
口口口口 |①---|
口②①口 |----|
口①②口 |②---|
口口口口 |----|
48
①口口口 |①---|
②口口口 |②---|
③口口口 |③---|
④口口口 |④---|
49
口口口口 |①---|
口③③口 |②---|
口②①口 |③---|
口①②口 |----|
50
口口口口 |①---|
口口口口 |----|
口口口① |②---|
口口②口 |----|
51
口口口口 |①---|
口口口口 |----|
②口口口 |②---|
口①口口 |----|
52
口②口口 |①---|
①口口口 |----|
口口口口 |②---|
口口口口 |----|
53
口口①口 |①---|
口口口② |----|
口口口口 |②---|
口口口口 |----|
54
口口口口 |①---|
口①①口 |----|
口口口口 |②---|
口②②口 |----|
55
口口口口 |①---|
①口口① |②---|
②口口② |③---|
③口口③ |----|
56
口口口口 |①---|
口①①口 |----|
口口口口 |②---|
口②②口 |----|
57
口口口口 |①---|
③④④③ |②---|
①②②① |③---|
口口口口 |④---|
58
①②②① |①---|
口口口口 |②---|
③④④③ |③---|
口口口口 |④---|
59
口口④口 |①---|
①口③① |②---|
口口口口 |③-④-|
口口②口 |----|
60
②口口② |①---|
口口口口 |②---|
口①①口 |----|
口口口口 |----|
61
④②②④ |①-②-|
口①①口 |--③-|
口③③口 |----|
口口口口 |④---|
62
⑥口口口 |①---|
①⑤口① |②---|
②口④② |③-④-|
口口口③ |⑤-⑥-|
63
③口口口 |----|
口口口① |①---|
口口②口 |②---|
口口口口 |③---|
64
口④④口 |①---|
①口口口 |②---|
②口口口 |③---|
③口口口 |④---|
65
口口口口 |①---|
口①①口 |②---|
口②②口 |③---|
口③③④ |④---|
66
口口口口 |①---|
③口口① |②---|
口④④口 |③---|
②口口口 |④---|
67
口①①口 |①---|
口④口口 |----|
口口③口 |--②-|
口口口② |③-④-|
68
②口口② |①---|
口口口口 |②---|
③口口③ |③---|
④①①④ |④---|
69
④②②④ |①-②-|
口①①口 |--③-|
口③③口 |----|
口口口口 |④---|
70
口口口⑥ |①---|
①口⑤① |②---|
②④口② |③-④-|
③口口口 |⑤-⑥-|
71
②口口口 |----|
口口口口 |①---|
口口口口 |②---|
③口口① |③---|
72
口口口口 |①---|
口口口口 |②---|
③口口① |③---|
④口口② |④---|
73
口口口口 |①---|
口④③口 |②---|
口①①口 |③---|
口②②口 |④---|
74
④④③③ |①---|
②口口① |②---|
口②①口 |③---|
口口口口 |④---|
75
④④③③ |①---|
口②①口 |②---|
口②①口 |③---|
口口口口 |④---|
76
口口口口 |----|
口口口口 |----|
口口口口 |----|
口口口口 |----|
77
②口口② |①---|
口①①口 |----|
口①①口 |②---|
口口口口 |----|
78
口①①口 |①---|
口口口口 |----|
口口口口 |②---|
口②②口 |----|
79
口口口口 |①---|
①口口① |----|
①②②① |②---|
口口口口 |----|
80
口①①口 |①---|
口口口口 |----|
口口口口 |----|
口口口口 |----|
81
口口②口 |①---|
口口口① |----|
口口口口 |②---|
口口口口 |----|
82
口①口口 |①---|
②口口口 |----|
口口口口 |②---|
口口口口 |----|
83
口口口口 |①---|
口口口口 |----|
①口口口 |②---|
口②口口 |----|
84
口口口口 |①---|
口口口口 |----|
口口口② |②---|
口口①口 |----|
85
口口口口 |①---|
口②①口 |----|
口①②口 |②---|
口口口口 |----|
86
口口口口 |----|
口①①口 |----|
口①①口 |①---|
口口口口 |----|
87
①①①① |①---|
口口口口 |----|
口口口口 |----|
口口口口 |----|
88
口口口口 |①---|
①①①① |----|
口口口口 |----|
口口口口 |----|
89
口口口口 |①---|
口口口口 |----|
①①①① |----|
口口口口 |----|
90
口口口口 |①---|
口口口口 |----|
口口口口 |----|
①①①① |----|
91
口口③③ |①---|
口口②② |--②-|
口口①① |----|
口口口口 |③---|
92
③③口口 |①---|
②②口口 |--②-|
①①口口 |----|
口口口口 |③---|
93
口口③③ |①---|
口口②② |--②-|
口口①① |----|
口口口口 |③---|
94
②②口口 |①---|
①①口口 |--②-|
口③③口 |----|
口口口口 |③---|
95
①①①① |----|
口口口口 |----|
口口口口 |①---|
口口口口 |----|
96
口口口口 |----|
口口①口 |----|
口口①口 |----|
口口口口 |①---|
97
口口口口 |①---|
口①口口 |----|
口①口口 |----|
口口口口 |----|

accuracy: 100%
最終更新:2022年07月20日 01:00