アットウィキロゴ
スーパー戦湯ババンバーン
すわひでお,秋成,かぼちゃ,藍月なくる,NU-KO by BEMANI Sound Team "八戸亀生羅"

ADVANCED

Level: 8
BPM: 188
Notes: 610

1
口口口① |----|
口口口口 |----|
①口口口 |----|
口口口口 |①---|
2
①口口口 |①---|
口口口口 |----|
口口口① |----|
口口口口 |----|
3
口口口口 |①---|
口口口① |----|
口口口口 |----|
口口口口 |----|
4
口口口口 |①---|
口口口口 |----|
口口①口 |----|
口口口口 |----|
5
口口口口 |①---|
口口口口 |----|
口口口口 |----|
口①口口 |----|
6
①②口口 |①---|
②①口口 |--②-|
口口口口 |----|
口口口口 |----|
7
口口①② |①---|
口口②① |--②-|
口口口口 |----|
口口口口 |----|
8
口口口口 |①---|
口口口口 |--②-|
①②口口 |----|
②①口口 |----|
9
口口口口 |①---|
口口口口 |--②-|
口口①② |----|
口口②① |----|
10
口口口口 |①---|
①口③口 |②---|
口口口口 |③---|
口②口④ |④---|
11
口口口口 |①---|
口口口口 |②---|
④③②① |③---|
口口口口 |④---|
12
口口口口 |①---|
口③口① |②---|
口口口口 |③---|
④口②口 |④---|
13
口口口口 |①---|
口口口口 |②---|
①②③④ |③---|
口口口口 |④---|
14
口口①① |①---|
口②口口 |----|
口口口口 |②---|
口口口口 |----|
15
口口口口 |①---|
口口口口 |----|
①口口口 |----|
口口口口 |----|
16
①①口口 |①---|
口口②口 |----|
口口口口 |②---|
口口口口 |----|
17
口口口口 |①---|
口口口口 |②---|
④③②① |③---|
口口口口 |④---|
18
口②③口 |①---|
①口口④ |②---|
口口口口 |③---|
口口口口 |④---|
19
口口口口 |①---|
口口口口 |②---|
④口口① |③---|
口③②口 |④---|
20
②口口② |①---|
①口口① |②---|
口口口口
口口口口

口⑤⑤口
⑤③③⑤
口④④口 |③-④-|
口口口口 |--⑤-|
21
口口口口 |----|
口口口口 |----|
口口口口 |----|
口口口口 |----|
22
口③②口 |①---|
④口口① |②---|
口口口口 |③---|
口口口口 |④---|
23
口口口口 |①---|
口口口口 |②---|
①口口④ |③---|
口②③口 |④---|
24
②口口② |①---|
①口口① |②---|
口口口口
口口口口

口⑤⑤口
⑤③③⑤
口④④口 |③-④-|
口口口口 |--⑤-|
25
口口口口 |----|
口口口口 |----|
口②口口 |----|
口口①口 |①-②-|
26
口口②口 |①---|
①③口口 |--②-|
口口④口 |③-④-|
口⑤口⑥ |⑤-⑥-|
27
口口口① |①---|
口③③① |②---|
口②⑤② |③---|
口④口口 |④-⑤-|
28
口②口口 |①---|
口口③① |--②-|
口④口口 |③-④-|
口⑥⑤口 |⑤-⑥-|
29
口口口口 |①---|
②②口口 |--②-|
口口①①
口口口口

③③口口
口口口口
口口⑤口 |③---|
口④口口 |④-⑤-|
30
口④⑤口 |①---|
口②③① |②-③-|
口⑥⑦口 |④-⑤-|
口口口口 |⑥-⑦-|
31
①口口① |①---|
②口口② |②---|
③口⑤③ |③---|
口口口④ |④-⑤-|
32
口⑤口口 |①---|
⑤①②② |②-③-|
口④口口 |④---|
口③口⑥ |⑤-⑥-|
33
⑤⑤口② |①---|
口④③口 |②-③-|
口③④① |④---|
②口口口 |⑤---|
34
口⑦⑥口 |①-②-|
⑦口口⑥ |③---|
口⑤④口 |④-⑤-|
③②①口 |⑥-⑦-|
35
⑥⑥⑦⑦ |①-②-|
口口口口 |③---|
口④⑤口 |④-⑤-|
口①②③ |⑥-⑦-|
36
口口口口 |①-②-|
①⑦③⑤ |③-④-|
口口口口 |⑤-⑥-|
⑧②⑥④ |⑦-⑧-|
37
①③⑥① |①-②-|
④⑥③④ |③---|
②⑤②⑤ |④-⑤-|
口口口口 |⑥---|
38
口⑦⑥口 |①-②-|
口口口口 |③---|
⑦⑤④⑥ |④-⑤-|
③②①口 |⑥-⑦-|
39
⑥口口⑦ |①-②-|
口④⑤口 |③---|
⑥口口⑦ |④-⑤-|
口①②③ |⑥-⑦-|
40
口③④口 |①-②-|
⑤口口⑥ |③-④-|
口①②口 |⑤-⑥-|
口⑦⑧口 |⑦-⑧-|
41
③⑤口③ |①-②-|
口①①⑤ |③-④-|
④②②④ |⑤---|
口口⑥⑥ |⑥---|
42
口口①口 |①---|
口②③口 |----|
口口①② |②---|
口口口口 |③---|
43
口③③① |①---|
④口口口 |②---|
口①②口 |③---|
口口口口 |④---|
44
口口口口 |①---|
口③②口 |----|
②口口口 |②---|
①①口口 |③---|
45
①③③口 |①---|
口④④口 |②---|
口②①口 |③---|
口口口口 |④---|
46
口口口口 |①---|
①口口① |②---|
口②②口 |③---|
③④④③ |④---|
47
①②口① |①---|
口②②口 |--②-|
口②②口 |----|
口口口口 |----|
48
口口口口 |①---|
①口口① |②---|
④②②④ |③---|
③口口③ |④---|
49
口口③口 |①---|
①③③① |②---|
口②②口 |③---|
口口口口 |----|
50
口①④口 |①---|
①口口④ |②---|
②口口③ |③---|
口②③口 |④---|
51
口口口口 |①---|
口①②口 |②---|
口③④口 |③---|
口口口口 |④---|
52
口②③口 |①---|
②口口③ |②---|
①口口④ |③---|
口①④口 |④---|
53
口口口口 |①---|
口③④口 |②---|
口①②口 |③---|
口口口口 |④---|
54
口①②② |①---|
①③③口 |--②-|
口③③① |----|
②②①口 |③---|
55
①口口④ |①---|
②口口③ |②---|
③口口② |③---|
④口口① |④---|
56
口④①口 |①---|
口③②口 |②---|
口②③口 |③---|
口①④口 |④---|
57
①口口② |①---|
③口口④ |②---|
④口口③ |③---|
②口口① |④---|
58
③②①口 |①---|
口④口口 |②---|
口口④口 |③---|
口口口口 |④---|
59
口②④① |①---|
④口①② |②---|
口①口口 |③-④-|
口③③口 |----|
60
口②口② |①---|
口口①口 |②---|
口①②① |③---|
④③④③ |④---|
61
③②①口 |①-②-|
②③口口 |--③-|
①口口口 |--④-|
口④⑤⑥ |⑤-⑥-|
62
口口①② |①---|
⑥口③③ |②---|
口⑤②① |③-④-|
口口④口 |⑤-⑥-|
63
①口①口 |①---|
口②口口 |②---|
③口③口 |③---|
口④口口 |④---|
64
口口⑥口 |①-②-|
④③②① |③-④-|
口⑤⑤⑥ |⑤---|
口口口口 |⑥---|
65
口②④④ |①---|
⑤⑤口口 |②---|
②口口口 |③---|
③③①① |④-⑤-|
66
②②口口 |①-②-|
口口③口 |--③-|
口口①①
口口③口

口口口口
口口口④
⑤口口⑤ |④---|
口口口④ |--⑤-|
67
③①①口 |①---|
口口口口 |②-③-|
口口口口
口②口口

口口⑥口
⑥④口④
口口口口 |--④-|
⑤口⑤口 |⑤-⑥-|
68
口②口② |①---|
口口①口 |②---|
口①②①
口口口口

口口口口
口口⑤口
口口口口 |③---|
④③④③ |④-⑤-|
69
③②①口 |①-②-|
②③口口 |--③-|
①口口口 |--④-|
口④⑤⑥ |⑤-⑥-|
70
口口①② |①---|
⑥口③③ |②---|
口⑤②① |③-④-|
口口④口 |⑤-⑥-|
71
①口①③ |①--②|
口口口口 |--③-|
②口②③
口口口口

⑥④⑥口
口口口口
口④口口 |-④--|
口⑤口⑤ |⑤-⑥-|
72
口⑧⑦口 |①-②-|
④③②① |③-④-|
⑧⑥⑤⑦ |⑤-⑥-|
口口口口 |⑦-⑧-|
73
④口口③ |①-②-|
口④③口 |③-④-|
口⑦⑥⑤ |--⑤-|
②②①① |⑥-⑦-|
74
④⑤⑥口 |①---|
①②②口 |②---|
①口口口 |③-④-|
口③③口 |⑤-⑥-|
75
口口口① |①---|
口③③① |②---|
口②②口 |③---|
口口口口 |----|
76
口④③口 |----|
④口口③ |①-②-|
口①②口 |③---|
口⑤⑤口 |④-⑤-|
77
口口口口 |----|
口口口口 |----|
口口口口 |----|
口口口口 |----|
78
口③④口 |----|
③口口④ |①-②-|
口②①口 |③---|
口⑤⑤口 |④-⑤-|
79
口口口口 |----|
口口口口 |----|
口口口口 |----|
口口口口 |----|
80
①③②① |①---|
口口口口 |----|
口①①口 |----|
口口口口 |②-③-|
81
①口口口 |①---|
②口口口 |----|
③口口口 |②---|
口口口口 |③---|
82
口口口口 |①---|
口口口④ |②---|
口口口③ |③---|
口①②口 |④---|
83
②口①口 |①---|
口①口口 |②---|
口口②口
口口口口

口③④口
口口口口
口口口口 |----|
口口口口 |③-④-|
84
口口口① |①---|
口口口② |②---|
口口口③ |③---|
口口④口 |④---|
85
口口口口 |①---|
③④口口 |②---|
②口④口 |③---|
口①口口 |④---|
86
口②口口 |①---|
②口①口 |----|
口①口② |②---|
口口②口 |----|
87
口口①口 |①---|
口口口① |----|
①②②口 |②---|
口①口口 |----|
88
口口口口 |①---|
④③②① |②---|
口口口口 |③---|
口口口口 |④---|
89
口①①口 |①---|
口口口口 |----|
口口口口 |②---|
口②②口 |----|
90
口口口口 |①---|
口口口口 |②---|
①②③④ |③---|
口口口口 |④---|
91
①②口口 |①---|
口①口口 |--②-|
②口②口 |----|
口③③口 |③---|
92
口口②① |①---|
口口①口 |--②-|
口②口② |----|
口③③口 |③---|
93
口②口口 |①---|
①①口口 |--②-|
②口②口 |----|
口③③口 |③---|
94
口口②口 |①---|
口口①① |--②-|
口②口② |----|
口③③口 |③---|
95
口①①口 |----|
①口口① |----|
口①①口 |①---|
口口口口 |----|
96
口口口口 |----|
口口①口 |----|
口口口① |----|
口口口口 |①---|
97
口口口口 |①---|
口①口口 |----|
①口口口 |----|
口口口口 |----|

accuracy: 100%
最終更新:2022年07月20日 01:14