アットウィキロゴ
スーパー戦湯ババンバーン
すわひでお,秋成,かぼちゃ,藍月なくる,NU-KO by BEMANI Sound Team "八戸亀生羅"

EXTREME

Level: 10.3
BPM: 188
Notes: 997

1
②①③口 |----|
口口口口 |----|
口口口口 |----|
②①③口 |①②-③|
2
⑤⑥口① |①---|
口口③口 |-②--|
口④②口 |③--④|
口口口① |-⑤⑥-|
3
口口口口 |①-②-|
口⑤口① |③---|
④口口② |----|
口口③口 |④-⑤-|
4
口⑨口① |①---②--③|
⑧口⑤③ |--④--⑤--|
口口④② |-⑥⑦-|
口⑥⑦口 |⑧--⑨|
5
口⑧④⑧ |--①--②--|
口②⑤① |③--④--⑤-|
口⑥③口 |-⑥----⑦-|
口⑦⑦口 |-⑧--|
6
③口口口 |-------①|
口②④④ |--②--③--|
①口④⑤ |④---|
口口口口 |---⑤|
7
③③⑥⑧ |-①--②---|
③③口④ |③---|
⑤③口口 |-④--⑤--⑥|
③⑦①② |-⑦-⑧|
8
口口口口 |-①--|
口口①口 |-----②--|
口口①①
②口①①

⑦口⑤口
⑦⑦⑦④
⑦③⑦口 |③--④--⑤-|
口⑥口口 |-⑥--⑦---|
9
口口口① |----|
口口口口 |----|
③口口② |①--②|
⑤口口④ |③④⑤-|
10
①①①口 |----|
①②①口 |①---|
口②②口 |②---|
口②②口 |----|
11
⑥②口口 |----|
口口⑤① |---①--②-|
口口③口 |-③--④--⑤|
口④⑦口 |--⑥--⑦--|
12
③①②③ |----|
口口口口 |--①-|
①④④② |-②--|
口口口口 |③--④|
13
②①口③ |----|
口口口口 |--①-|
口口口口 |-②--|
②①口③ |③---|
14
口口口③ |----|
口口②口 |----|
口口口口 |①---|
口①口口 |②-③-|
15
⑤⑥⑦⑧ |①---|
口②口口 |--②-|
口①①④ |③-④-|
口③口口 |⑤⑥⑦⑧|
16
口④口④ |①---|
③口⑤口 |----|
口①①口 |②-③-|
口口②口 |④-⑤-|
17
④③②口 |①---|
⑦口⑥口 |----|
口①口口 |②③④-|
口⑤⑧口 |⑤⑥⑦⑧|
18
口口⑤⑤ |①---|
⑥口⑥③ |②-③-|
②①口④ |④-⑤-|
口口口口 |--⑥-|
19
口①口口 |①-②-|
口③口③ |③-④-|
⑥⑥②口 |⑤-⑥-|
口⑤④⑤ |----|
20
①③①③ |①-②-|
⑥②口⑤ |③-④-|
⑥口④⑤ |⑤-⑥-|
⑧⑦口⑧ |⑦-⑧-|
21
⑨③⑥口 |--①②|
⑧②⑤⑪ |③-④⑤|
⑦①④⑩ |⑥-⑦⑧|
口口口口 |⑨-⑩⑪|
22
口口⑥① |①---|
⑤②⑤口 |②-③-|
口口③口 |④-⑤-|
口口口④ |⑥---|
23
口③⑥③ |①---|
口⑤⑤口 |②-③-|
②⑥口② |④-⑤-|
④①④口 |--⑥-|
24
①④口④ |①-②-|
口口口② |③-④-|
②口口口
口③口③

⑦口⑦口
口⑤口口
口口口⑥ |⑤-⑥-|
⑥口⑤口 |--⑦-|
25
口⑦⑨⑦ |--①-|
②③④⑤ |②③④⑤|
⑨①⑧口 |⑥-⑦-|
口⑥⑥口 |⑧-⑨-|
26
口口口口 |①---|
口②口口 |--②-|
口①口口
口口口口

⑥口口④
口口口③
口⑥口⑤ |③-④-|
口③⑤口 |⑤-⑥-|
27
口口③④ |①---|
口②①③ |②-③-|
⑥口①⑤ |④---|
口⑥口口 |⑤-⑥-|
28
③①③口 |①---|
⑤④⑤口 |--②-|
口⑥②口 |③-④-|
口口②口 |⑤-⑥-|
29
口口口① |①---|
⑥口口口 |--②③|
口⑤口① |④---|
口②③④ |⑤-⑥-|
30
①①口⑥ |①-②-|
口⑤⑧② |③-④-|
口⑦③⑤ |⑤-⑥-|
④口④⑦ |⑦-⑧-|
31
口③①口 |①-②-|
②口口口 |③-④-|
口口口④
口①③口

⑤口⑦⑤
口⑥⑦⑥
口口口口 |⑤---|
口口口口 |⑥-⑦-|
32
④口口⑧ |①---|
③口口⑦ |②-③④|
⑥⑤⑤口 |⑤---|
口①②① |⑥-⑦⑧|
33
④②④口 |①---|
口①①口 |②-③-|
⑥口⑤⑦ |④-⑤-|
⑧③③⑨ |⑥⑦⑧⑨|
34
⑦⑤⑦⑤ |①-②-|
①①④② |③-④-|
口③⑧口 |⑤-⑥-|
口⑥③口 |⑦-⑧-|
35
⑦⑤⑦⑤ |①-②-|
①口④③ |③-④-|
①②口③ |⑤-⑥-|
⑧⑥⑧⑥ |⑦-⑧-|
36
口④口口 |①-②-|
口②口③ |③-④-|
③①①口
口口口口

口口口⑤
⑦口⑥口
口⑧口⑤ |⑤-⑥-|
⑦口口口 |⑦-⑧-|
37
⑤⑧④⑤ |①-②③|
口③⑦口 |④---|
②口口⑥ |⑤-⑥⑦|
口①①口 |⑧---|
38
⑧口口⑥ |①-②③|
①⑨⑦① |④⑤--|
⑧⑤⑤⑥ |⑥-⑦-|
口②③④ |⑧-⑨-|
39
⑨①⑧④ |①-②-|
①⑦口③ |③④--|
⑥口⑤⑤ |⑤-⑥⑦|
口②②口 |⑧-⑨-|
40
口口口④ |①-②-|
④口②口 |③-④-|
口③口口
口①②③

口⑤⑥口
口口口⑤
⑦口口⑦ |⑤-⑥-|
⑥⑧口口 |⑦-⑧-|
41
④口⑦⑤ |①②③④|
⑨②③⑦ |⑤-⑥-|
口⑧①口 |⑦---|
口口⑥⑥ |⑧-⑨-|
42
口①口② |①---|
口⑤口③ |②---|
⑥口口口 |③-④-|
口④口口 |⑤-⑥-|
43
口口口口 |①-②-|
①⑥③⑤ |③-④-|
口⑦口④ |⑤---|
口口②口 |⑥-⑦-|
44
①口口③ |①-②-|
口⑥口④ |③---|
②⑦口口 |④-⑤-|
口⑤口口 |⑥-⑦-|
45
口⑦⑧口 |①-②-|
①口③⑤ |③-④-|
⑥口④口 |⑤-⑥-|
口口②口 |⑦-⑧-|
46
②口口② |①-②-|
口口口④ |--③-|
口③③① |--④-|
口⑥⑤口 |⑤-⑥-|
47
③口④④ |①-②-|
①①口口 |③-④-|
口口口②
口口口口

口口口口
口⑥⑥口
口口口口 |----|
口⑤口口 |⑤-⑥-|
48
⑧口⑧③ |①-②-|
口⑦口⑦ |③-④-|
②①①② |⑤-⑥-|
⑤⑥④⑤ |⑦-⑧-|
49
⑦口⑦③ |①-②-|
③口①口 |③-④-|
②⑤⑤① |⑤-⑥-|
⑧⑥⑧④ |⑦-⑧-|
50
口①口② |①-②-|
口⑦⑥③ |③-④-|
①⑧⑧④ |⑤-⑥-|
口⑥⑦⑤ |⑦-⑧-|
51
口①口① |①-②-|
④口口口 |③-④-|
③口口口
②口口口

⑤⑧口口
口口⑦口
口⑦口口 |⑤-⑥-|
口⑥⑥口 |⑦-⑧-|
52
口口口② |①-②-|
口①口③ |③-④-|
口口①④
口口口口

⑥口⑧口
口口⑥口
口⑦⑧口 |⑤-⑥-|
口⑦口⑤ |⑦-⑧-|
53
⑤①口① |①-②-|
④口⑧⑦ |③-④-|
③⑦⑧口 |⑤-⑥-|
②⑥⑥口 |⑦-⑧-|
54
⑤⑥⑥② |①-②-|
③①⑦口 |③-④-|
④口口④ |⑤-⑥-|
口⑦⑧① |⑦-⑧-|
55
④口⑤⑤ |①-②-|
口①口① |③-④-|
⑦②③④ |⑤---|
③口⑥② |⑥-⑦-|
56
⑤④③⑥ |①-②-|
⑦①口① |--③④|
口⑦⑥口 |⑤---|
口②口② |⑥-⑦-|
57
口⑦③⑦ |①-②-|
口②⑥③ |③-④-|
②口⑧① |⑤-⑥-|
④④①⑤ |⑦-⑧-|
58
④⑩⑤口 |--①-|
①口⑦⑪ |②③④⑤|
⑧⑥⑬③ |⑥⑦⑧⑨|
⑫②⑨口 |⑩⑪⑫⑬|
59
②口口② |①---|
①④③口 |②---|
口口口口 |③-④-|
口④③口 |----|
60
口③③⑦ |①-②-|
②⑥口① |③---|
②⑧⑤① |④⑤⑥⑦|
⑩④口⑨ |⑧⑨⑩-|
61
①③口口 |①-②-|
①口②② |③-④-|
口口口口
口④④口

⑦口⑦⑤
口⑥口口
⑤口口⑥ |--⑤-|
口口口口 |⑥-⑦-|
62
口②口口 |①-②-|
口口口④ |③-④-|
口①①口
口③③口

⑦口口⑦
口口⑥口
⑥⑧⑧口 |⑤-⑥-|
⑤口口⑤ |⑦-⑧-|
63
口④①⑦ |①-②-|
口口⑤⑥ |③-④-|
口口口口 |--⑤-|
口③②口 |⑥-⑦-|
64
①④②口 |①-②-|
④口口口 |③-④-|
口口口口
③②③①

⑧口口口
口口⑥口
⑦⑤⑤⑦ |⑤-⑥-|
口口口口 |⑦-⑧-|
65
口口④① |①-②-|
③②⑦③ |③-④-|
口⑥口口 |⑤---|
⑤①⑤口 |⑥-⑦-|
66
②①口① |①-②-|
口口口② |--③④|
①口②口
口口③④

⑧⑦口口
⑥口口口
口口口⑤ |⑤---|
⑤口口口 |⑥-⑦⑧|
67
口口①口 |①---|
口②③① |②-③-|
①②③口
口口口口

口口口口
⑦口口⑦
口口口口 |--④⑤|
口④⑤⑥ |⑥-⑦-|
68
①③①③ |①-②-|
口口口口 |③-④-|
②口口④
口口口口

⑪口口口
⑪⑦口⑩
口口⑥口 |⑤⑥⑦⑧|
⑨⑤⑧口 |⑨⑩⑪-|
69
口②①② |①-②-|
口口①口 |--③-|
口口口口
口③口③

⑥口⑥口
口⑤口⑤
④口④口 |--④-|
口口口口 |⑤-⑥-|
70
⑧③⑧⑤ |①-②-|
口⑦③⑦ |③-④-|
⑥⑤⑥② |⑤-⑥-|
①④①口 |⑦-⑧-|
71
口⑧⑦口 |①-②-|
④⑧⑦口 |③-④-|
⑥口口③ |⑤-⑥-|
②口①⑤ |⑦-⑧-|
72
③口口① |①-②-|
③口口口 |③-④-|
口②①口
口口口④

口⑦⑦口
口口口口
⑥口⑧口 |⑤-⑥-|
口⑤⑤口 |⑦-⑧-|
73
③口口① |①-②-|
②①④③ |③-④-|
口口口②
④④口③

口⑤口口
口⑦口口
口口⑥口 |--⑤-|
口口口口 |⑥-⑦-|
74
⑤⑤①① |①-②-|
②口⑦口 |③-④-|
⑥口口⑥ |⑤-⑥-|
口④⑧③ |⑦-⑧-|
75
口口①① |①-②-|
②口口② |③-④-|
口口③口
口④口口

⑤⑤口⑨
口⑩口口
口⑥口口 |⑤-⑥⑦|
⑧口⑦⑪ |⑧⑨⑩⑪|
76
⑥口⑥④ |----|
口⑤①② |①-②-|
口口③口 |③-④-|
口口口口 |⑤-⑥-|
77
⑨口口⑨ |①②-③|
⑥口口④ |④-⑤⑥|
⑤②⑧③ |-⑦⑧-|
⑩①⑦⑩ |⑨-⑩-|
78
⑩口⑧⑩ |①②-③|
⑥②⑦④ |④-⑤⑥|
⑤①口③ |-⑦⑧-|
口⑨⑨口 |⑨-⑩-|
79
⑨口口⑨ |①②-③|
⑥②口④ |④-⑤⑥|
⑤①⑧③ |-⑦⑧-|
⑩口⑦⑩ |⑨-⑩-|
80
口口口口 |①②-③|
口②口④ |④-⑤-|
口①口③
口⑤⑤口

口口口口
⑥口⑥口
口⑦口口 |----|
口口口口 |⑥-⑦-|
81
口口口口 |①---|
口③③口 |----|
①口①口 |②---|
口②②口 |③---|
82
③②②③ |①---|
④口口④ |②---|
口①①口 |③---|
口口口口 |④---|
83
口②②口 |①---|
口口⑤口 |②-③-|
①④口① |----|
口③③口 |④-⑤-|
84
①口口① |①---|
口口口口 |②---|
②口口② |③---|
④③③④ |④---|
85
口⑥口口 |①---|
①口⑤① |②-③-|
④②⑦口 |----|
口口③口 |④⑤⑥⑦|
86
①口口① |①---|
口口口口 |----|
口口口口 |②---|
口②②口 |----|
87
⑨②⑧⑨ |①②-③|
①口④① |④-⑤⑥|
⑥口⑦口 |-⑦⑧-|
⑤⑩⑩③ |⑨-⑩-|
88
⑩②口⑩ |①②-③|
口⑥口⑧ |④-⑤⑥|
⑤①⑦④ |-⑦⑧-|
口⑨⑨③ |⑨-⑩-|
89
⑨口④⑨ |①②-③|
②⑥⑧口 |④-⑤⑥|
⑤①口③ |-⑦⑧-|
⑩口⑦⑩ |⑨-⑩-|
90
口②④口 |①②-③|
⑥⑤口口 |④-⑤⑥|
口①口③ |--⑦-|
口⑦⑦口 |----|
91
②口口② |①②-③|
⑥④口④ |④-⑤⑥|
口⑥⑤口
③口口①

口⑦⑧⑨
口口口口
口口口口 |--⑦----⑧|
口⑦⑧⑨ |--⑨-|
92
②口口口 |①②-③|
⑤④③④ |④-⑤⑥|
②⑥⑥①
口口口口

⑨⑧⑦口
口口口口
口口口口 |--⑦----⑧|
⑨⑧⑦口 |--⑨-|
93
口口口② |①②-③|
④④⑥② |④-⑤⑥|
①⑤⑥③
口口口口

口⑦⑧⑨
口口口口
口口口口 |--⑦----⑧|
口⑦⑧⑨ |--⑨-|
94
②⑥口口 |①②-③|
④③④① |④-⑤⑥|
②⑤口⑥ |----|
口⑦⑦口 |⑦---|
95
口①口① |----|
①口①口 |----|
口①口① |①---|
口口口口 |----|
96
②①③口 |----|
②①③口 |----|
②①③口 |----|
②①③口 |①②-③|
97
口口口① |①---|
口口口① |----|
口口口① |----|
口口口① |----|

accuracy: 100%
最終更新:2022年07月20日 17:44