アットウィキロゴ
斑咲花
mami,駄々子 by BEMANI Sound Team "Akhuta Works"

BASIC

Level: 4
BPM: 134-201
Notes: 295

1
口口口口 |(201)----|
口口口口 |----|
口口口口 |----|
口口口口 |----|
2
口口口口 |①---|
口口①① |--②-|
②②口口 |----|
口口③③ |③---|
3
口口口口 |----|
口口①口 |----|
口口口口 |①---|
口口口口
4
口口口口 |①---|
①①口口 |--②-|
口口②② |----|
③③口口 |③---|
5
口口口口 |----|
口①口口 |----|
口口口口 |①---|
口口口口
6
口口口口 |①---|
口口①① |--②-|
②②口口 |----|
口口③③ |③---|
7
口口口口 |----|
口口口口 |----|
口口①口 |①---|
口口口口
8
口口口口 |①---|
口口口口 |----|
②②口口 |②---|
①①口口 |----|
9
②②口口 |①---|
①①口口 |----|
口口口口 |②---|
口口口口 |----|
10
口口口口 |①---|
口口口② |----|
口口①口 |②---|
口口口口 |----|
11
口口①口 |①---|
口口口口 |----|
口口口口 |----|
口口口口 |----|
12
口口口口 |①---|
②口口口 |----|
口①口口 |②---|
口口口口 |----|
13
口①口口 |①---|
口口口口 |----|
口口口口 |----|
口口口口 |----|
14
口口口口 |①---|
口口口② |----|
口口①口 |②---|
口口口口 |----|
15
口口①口 |①---|
口口②口 |----|
口口口口 |②---|
口口口口 |----|
16
口口口口 |①---|
②口口口 |----|
口①口口 |②---|
口口口口 |----|
17
口①口口 |①---|
口②口口 |----|
口口口口 |②---|
口口口口 |----|
18
①口口① |①---|
②口口② |----|
口口口口 |②---|
口口口口 |----|
19
口①①口 |①---|
口②②口 |----|
口口口口 |②---|
口口口口 |----|
20
口口口口 |----|
口口口口 |----|
口口口口 |----|
口口口口 |----|
21
口②口口 |①---|
①口口口 |----|
口口口口 |②---|
口口口口 |----|
22
口口口口 |①---|
口口①口 |----|
口②口口 |②---|
口口口口 |----|
23
口口口口 |----|
口口口口 |----|
口口口口 |----|
口口口口 |----|
24
口口口口 |----|
口口口口 |----|
口口口口 |----|
口口口口 |----|
25
口口口口 |①---|
①口口口 |----|
口②口口 |②---|
口口口口 |----|
26
口②口口 |①---|
口口①口 |----|
口口口口 |②---|
口口口口 |----|
27
口口口口 |----|
口口口口 |----|
口口口口 |----|
口口口口 |----|
28
口口口口 |①---|
口①②口 |----|
口口口口 |②---|
口口口口 |----|
29
口口口口 |①---|
口口口口 |----|
口①②口 |②---|
口口口口 |----|
30
口口口口 |①---|
口①②口 |----|
口口口口 |②---|
口口口口 |----|
31
口①②口 |①---|
口口口口 |----|
口口口口 |②---|
口口口口 |----|
32
口口口口 |----|
口口口口 |----|
口口口口 |----|
口口口口 |----|
33
口口②口 |①---|
口口口① |----|
口口口口 |②---|
口口口口 |----|
34
口口口口 |①---|
口①口口 |----|
口口②口 |②---|
口口口口 |----|
35
口口口口 |----|
口口口口 |----|
口口口口 |----|
口口口口 |----|
36
口口口口 |----|
口口口口 |----|
口口口口 |----|
口口口口 |----|
37
口口口口 |①---|
口口口① |----|
口口②口 |②---|
口口口口 |----|
38
口口②口 |①---|
口①口口 |----|
口口口口 |②---|
口口口口 |----|
39
口口口口 |----|
口口口口 |----|
口口口口 |----|
口口口口 |----|
40
口口口口 |①---|
口②①口 |----|
口口口口 |②---|
口口口口 |----|
41
口口口口 |①---|
口口口口 |----|
口②①口 |②---|
口口口口 |----|
42
口口口口 |①---|
口②①口 |----|
口口口口 |②---|
口口口口 |----|
43
口②①口 |①---|
口口口口 |----|
口口③③ |②---|
口口口口 |--③-|
44
口口口口 |----|
口口①① |--①-|
②②口口 |----|
口口口口 |--②-|
45
①①口口 |----|
口口口口 |----|
口口口口 |①---|
口口口口 |----|
46
口口口口 |----|
口口口口 |----|
口口口口
口口口口
47
①②③④ |(134)①---|
口口口口 |②---|
口口口口 |③---|
口口口口 |④---|
48
口口口口 |①---|
④③②① |②---|
口口口口 |③---|
口口口口 |④---|
49
口口口口 |①---|
口口口口 |②---|
①②③④ |③---|
口口口口 |④---|
50
口口口口 |①---|
口①①口 |----|
口口口口 |②---|
口②②口 |----|
51
口口口口 |(201)①---|
①①口口 |--②-|
②②口口 |----|
③③口口 |③---|
52
口口口口 |----|
口②口口 |①---|
口口①口 |②---|
口口口口
53
口口口口 |①---|
口口①① |--②-|
口口②② |----|
口口③③ |③---|
54
口口口口 |----|
口口②口 |①---|
口①口口 |②---|
口口口口
55
口口口口 |①---|
①①口口 |--②-|
②②口口 |----|
③③口口 |③---|
56
口口③口 |①---|
口②③口 |②---|
口口①口 |③---|
口口口口
57
②②口① |①---|
口口口① |----|
口口口口 |②---|
口口口口 |----|
58
口口口口 |①---|
口②②口 |----|
口②②口 |②---|
①①口口 |----|
59
口③②口 |--①-|
①口口口 |----|
口口口① |②---|
口②③口 |--③-|
60
口口口口 |----|
口①①口 |----|
口①①口 |①---|
口口口口 |----|
61
①口①口 |①---|
口口口口 |②---|
②③④口 |③---|
口口口口 |④---|
62
口口口口 |①---|
口②②口 |--②-|
口口口① |----|
口③③口 |③---|
63
口①口① |①---|
口口口口 |②---|
口④③② |③---|
口口口口 |④---|
64
②②口口 |①---|
口口口口 |--②-|
①口口口 |----|
③③口口 |③---|
65
口口②② |①---|
口①①口 |--②-|
口口口口 |----|
口口③③ |③---|
66
②口口② |①---|
口口口口 |--②-|
口①①口 |----|
③口口③ |③---|
67
口口口口 |①---|
①②③④ |②---|
①②③④ |③---|
口口口口 |④---|
68
②口①① |①---|
口口③口 |--②-|
口③口口 |----|
口口口② |③---|
69
口①口① |①---|
口口口口 |②---|
口④③② |③---|
口口口口 |④---|
70
口口口口 |①---|
口②②口 |--②-|
①口口口 |----|
口③③口 |③---|
71
①口①口 |①---|
口口口口 |②---|
②③④口 |③---|
口口口口 |④---|
72
口口②② |①---|
口口口口 |--②-|
口口口① |----|
口口③③ |③---|
73
②②口口 |①---|
口①①口 |--②-|
口口口口 |----|
③③口口 |③---|
74
②口口② |①---|
口口口口 |--②-|
口①①口 |----|
③口口③ |③---|
75
口口口口 |①---|
④③②① |②---|
④③②① |③---|
口口口口 |④---|
76
①①口口 |①---|
口口口口 |----|
口口口口 |----|
口口口口 |----|
77
口口口口 |①---|
口口口① |----|
口口口口 |②---|
口口②口 |----|
78
口口口口 |①---|
口口口口 |②---|
口①②③ |③---|
口口口口 |----|
79
口口口口 |①---|
①口口口 |----|
口口口口 |②---|
口②口口 |----|
80
口口口口 |①---|
口口口口 |②---|
③②①口 |③---|
口口口口 |----|
81
①口口① |①---|
口②②口 |----|
口口口口 |②---|
口口口口 |----|
82
口口口口 |①---|
口口口口 |----|
①口口① |②---|
口②②口 |----|
83
口②①口 |①---|
口口口口 |----|
口①②口 |②---|
口口口口 |----|
84
口口口口 |①---|
①口口① |----|
口②②口 |②---|
②口口② |----|
85
①口口① |①---|
口①①口 |----|
口口口口 |----|
口口口口 |----|
86
口口口口 |----|
口口口口 |----|
口口口口 |----|
口口口口 |----|
87
口口口口 |①---|
口口口② |----|
口口①口 |②---|
口口口口 |----|
88
口口①口 |①---|
口口口口 |----|
口口口口 |----|
口口口口 |----|
89
口口口口 |①---|
②口口口 |----|
口①口口 |②---|
口口口口 |----|
90
口①口口 |①---|
口口口口 |----|
口口口口 |----|
口口口口 |----|
91
口口口口 |①---|
口口口② |----|
口口①口 |②---|
口口口口 |----|
92
口口①口 |①---|
口口②口 |----|
口口口口 |②---|
口口口口 |----|
93
口口口口 |①---|
②口口口 |----|
口①口口 |②---|
口口口口 |----|
94
口①口口 |①---|
口②口口 |----|
口口口口 |②---|
口口口口 |----|
95
①口口① |①---|
②口口② |----|
口口口口 |②---|
口口口口 |----|
96
口①①口 |①---|
口②②口 |----|
口口口口 |②---|
口口口口 |----|

accuracy: 100%
最終更新:2022年07月30日 01:31