アットウィキロゴ
斑咲花
mami,駄々子 by BEMANI Sound Team "Akhuta Works"

ADVANCED

Level: 6
BPM: 134-201
Notes: 424

1
口口口口 |(201)----|
口口口口 |----|
口口口口 |----|
口口口口 |----|
2
口口口口 |①---|
口口口① |--②-|
口口口口 |----|
口①②③ |③---|
3
③口口口 |①---|
口②口口 |②---|
口口①口 |③---|
口口口口
4
口口口口 |①---|
①口①口 |--②-|
口②口口 |----|
③口③口 |③---|
5
口口口口 |----|
口口口口 |----|
口口口口 |----|
口口口口
6
口口口口 |①---|
口口口① |--②-|
口口口口 |----|
口①②③ |③---|
7
③口口口 |①---|
口②口口 |②---|
口口①口 |③---|
口口口口
8
口口口口 |①---|
①③①③ |②---|
②④②④ |③---|
口口口口 |④---|
9
口①口① |①---|
②口②口 |②---|
口④④口 |③---|
口③口③ |--④-|
10
口②口口 |----|
口口③口 |①---|
①口口口 |②---|
口口口口 |③---|
11
口口口① |①---|
口④④口 |②---|
③口口② |③-④-|
口⑤⑤口 |--⑤-|
12
口口②口 |----|
口③口口 |①---|
口口口① |②---|
口口口口 |③---|
13
①口口口 |①---|
口④④口 |②---|
②口口③ |③-④-|
口⑤⑤口 |--⑤-|
14
口②口口 |----|
口口口口 |①---|
①口③口 |②---|
口口口口 |③---|
15
口口③① |①---|
口口口口 |②---|
口④口② |③---|
口口口口 |④---|
16
①口口④ |①---|
口口口口 |②---|
口口口口 |③---|
②口口③ |④---|
17
口口口口 |①---|
口①④口 |②---|
口②③口 |③---|
口口口口 |④---|
18
口①口口 |①---|
口口口口 |②---|
②口口④ |③---|
口口③口 |④---|
19
②③③② |①---|
口①①口 |②---|
口口口口 |③-④-|
口④④口 |----|
20
口口口口 |----|
口口口① |----|
口口口口 |----|
口口口口 |①---|
21
③口口口 |①---|
口口①口 |--②-|
口②口口 |----|
口口口口 |③---|
22
口①口口 |①---|
口口口③ |--②-|
口口②口 |----|
口口口口 |③---|
23
口口口口 |----|
口口口口 |----|
口口口口 |----|
口口口口 |----|
24
口口口口 |----|
口口口① |----|
口口口口 |----|
口口口口 |①---|
25
③口口口 |①---|
口口①口 |--②-|
口②口口 |----|
口口口口 |③---|
26
口①口③ |①---|
口口口口 |--②-|
口口②口 |----|
口口口口 |③---|
27
口口口口 |----|
口口口口 |----|
口口口口 |----|
口①口① |--①-|
28
口口口① |----|
口口②口 |①---|
口③口口 |②---|
口口口口 |③---|
29
口口口⑤ |①---|
②③口口 |②-③-|
口口④口 |--④-|
①口口口 |--⑤-|
30
口①口口 |----|
口口②口 |①---|
口口口③ |②---|
口口口口 |③---|
31
口口③④ |①---|
①①③④ |②---|
口口口口 |③-④-|
②②口口 |----|
32
口口口口 |----|
口口口口 |----|
口口口① |----|
口口口口 |①---|
33
口口①口 |①---|
口口口口 |--②-|
③②口口 |----|
口口口口 |③---|
34
口①口口 |①---|
口口②口 |--②-|
口口口③ |----|
口口口口 |③---|
35
口口口口 |----|
口口口口 |----|
口口口口 |----|
口口口口 |----|
36
口口口口 |----|
口口口口 |----|
①口口口 |----|
口口口口 |①---|
37
口①口口 |①---|
口口口口 |--②-|
口口②③ |----|
口口口口 |③---|
38
③口①口 |①---|
口②口口 |--②-|
口口口口 |----|
口口口口 |③---|
39
口口口口 |----|
①口口口 |----|
口口口口 |----|
口口①口 |--①-|
40
口口口口 |----|
口口③口 |①---|
口②口口 |②---|
①口口口 |③---|
41
⑤口口① |①---|
口④口口 |②-③-|
口口③② |--④-|
口口口口 |--⑤-|
42
口口口口 |----|
口口口口 |①---|
口口口口 |②---|
①②③口 |③---|
43
⑤口口口 |①---|
口口④② |②---|
口⑤③口 |③-④-|
口口口① |--⑤-|
44
口①口口 |----|
②②口口 |--①-|
①口口口 |----|
口口口口 |--②-|
45
口口③③ |①---|
口口②② |②---|
口口①① |③---|
口口口口 |----|
46
口口口口 |----|
口口口口 |----|
口口口口
口口口口
47
口③口③ |(134)①---|
②⑥②① |②---|
口口⑤口 |③---|
口①口④ |④-⑤-⑥-|
48
①口①口 |①---|
②口口口 |②---|
口口口口
口口②口

⑥口口③
口口④口
⑦⑤口口 |③-④-⑤-|
口口口口 |⑥-⑦-|
49
口口④口 |①---|
①③②① |②---|
④口口口 |③---|
②口口③ |④---|
50
①口口口 |①---|
口②口口 |----|
口口①口 |②---|
口口口口 |----|
51
①口①口 |(201)①---|
②口③口 |--②-|
③口口口 |----|
口口②口 |③---|
52
口口口口 |--①-|
口口口③ |②---|
口①②口 |③---|
口口口口
53
口①口① |①---|
口口②口 |--②-|
口口口③ |----|
②③口口 |③---|
54
口口口口 |--①-|
③口口口 |②---|
口②①口 |③---|
口口口口
55
①②①② |①---|
口口口口 |--②-|
口口口口 |----|
口③口③ |③---|
56
③口口口 |①---|
口②口口 |②---|
口口①口 |③---|
口口口口
57
口②口口 |①---|
②口口口 |----|
①口口口 |②---|
口①口口 |----|
58
口口①口 |①---|
口口口① |----|
口口口② |②---|
口口②口 |----|
59
口①①口 |--①-|
口③③口 |----|
口③③口 |②---|
口②②口 |--③-|
60
口口口① |----|
口口口口 |----|
口口口口 |①---|
①口口口 |----|
61
口口⑤⑤ |①---|
①③口口 |②-③-|
口②④④ |--④-|
口口①口 |--⑤-|
62
①口②口 |----|
口口口口 |--①-|
口口口口 |----|
②口①口 |②---|
63
⑤⑤口口 |①---|
口口③① |②-③-|
④④②口 |--④-|
口①口口 |--⑤-|
64
口口①口 |----|
②口②口 |--①-|
口口口① |----|
口口口口 |②---|
65
①②口口 |①---|
口③口③ |--②-|
②口①口 |----|
口口口口 |③---|
66
⑤②口① |①---|
口④口口 |--②-|
口①③② |--③-|
口口口口 |④-⑤-|
67
④④①① |①---|
③口②② |②---|
③口口口 |③---|
口口口口 |④---|
68
③口口口 |①---|
口②口口 |--②-|
口口②口 |----|
①①口③ |③---|
69
⑤⑤口口 |①---|
口口③① |②-③-|
④④②口 |--④-|
口①口口 |--⑤-|
70
口②口① |----|
口口口口 |--①-|
口口口口 |----|
口①口② |②---|
71
口口⑤⑤ |①---|
①③口口 |②-③-|
口②④④ |--④-|
口口①口 |--⑤-|
72
口①口口 |----|
口②口② |--①-|
①口口口 |----|
口口口口 |②---|
73
口口②① |①---|
③口③口 |--②-|
口①口② |----|
口口口口 |③---|
74
①口②⑤ |①---|
口口④口 |--②-|
②③①口 |--③-|
口口口口 |④-⑤-|
75
①①口口 |①---|
②②口③ |②---|
口口口③ |③---|
口口④④ |④---|
76
口口①① |①---|
口口口口 |----|
口口口口 |----|
口口口口 |----|
77
口①口② |----|
口口③口 |①---|
口④口口 |②--③|
口口口口 |--④-|
78
口口口口 |①---|
口口口口 |----|
口口②② |②---|
口口①① |----|
79
口口口口 |①---|
口口①口 |②---|
口口口口
口口②口

口口口口
口口⑤口
口④口口 |③--④|
③口口口 |--⑤-|
80
①①口口 |①---|
②②口口 |----|
口口口口 |②---|
口口口口 |----|
81
口④①口 |①---|
口口口口 |②---|
口③②口 |③---|
口口口口 |④---|
82
①口口① |①---|
②口口② |②---|
③口口③ |③---|
④口口④ |④---|
83
口口口口 |①---|
口①①口 |----|
口②②口 |②---|
口口口口 |----|
84
口①①口 |①---|
口口口口 |----|
口口口口 |②---|
口②②口 |----|
85
①口口① |①---|
口①①口 |----|
①口口① |----|
口口口口 |----|
86
口口口口 |----|
口口口口 |----|
口①①口 |----|
口口口口 |--①-|
87
口②口口 |----|
口口③口 |①---|
①口口口 |②---|
口口口口 |③---|
88
口口口① |①---|
口④④口 |②---|
③口口② |③-④-|
口⑤⑤口 |--⑤-|
89
口口②口 |----|
口③口口 |①---|
口口口① |②---|
口口口口 |③---|
90
①口口口 |①---|
口④④口 |②---|
②口口③ |③-④-|
口⑤⑤口 |--⑤-|
91
口②口口 |----|
口口口口 |①---|
①口③口 |②---|
口口口口 |③---|
92
口口③① |①---|
口口口口 |②---|
口④口② |③---|
口口口口 |④---|
93
①口口④ |①---|
口口口口 |②---|
口口口口 |③---|
②口口③ |④---|
94
口口口口 |①---|
口①④口 |②---|
口②③口 |③---|
口口口口 |④---|
95
口①口口 |①---|
口口口口 |②---|
②口口④ |③---|
口口③口 |④---|
96
②③③② |①---|
口①①口 |②---|
口口口口 |③-④-|
口④④口 |----|

accuracy: 100%
最終更新:2022年08月01日 02:55