アットウィキロゴ
斑咲花
mami,駄々子 by BEMANI Sound Team "Akhuta Works"

EXTREME

Level: 9.3
BPM: 134-201
Notes: 848

1
口口口口 |(201)----|
口口口口 |----|
口口口口 |----|
口口口口 |----|
2
口口口口 |①-②-|
①④①④ |③-④-|
⑦②⑤⑦ |⑤-⑥-|
口⑥③口 |⑦---|
3
③②①口 |①②③-|
口④口口 |④-⑤-|
⑦口⑤口 |⑥-⑦-|
口⑥口口
4
口⑦⑦口 |①-②-|
①④①④ |③-④-|
口②⑤口 |⑤-⑥-|
口⑥③口 |⑦---|
5
②口口口 |①--②|
口口口口 |--③-|
③①口④ |④---|
口口口口
6
口口口口 |①-②-|
①④①④ |③-④-|
⑦②⑤⑦ |⑤-⑥-|
口⑥③口 |⑦---|
7
①②③④ |①②③④|
⑤⑥⑦⑧ |⑤⑥⑦⑧|
口⑨口口 |⑨---|
口口口口
8
⑦口⑧口 |①-②-|
⑤口⑥口 |③-④-|
③口④口 |⑤-⑥-|
口①②口 |⑦-⑧-|
9
⑦口⑦口 |①-②-|
口口⑤⑥ |③-④-|
口口⑤⑥ |⑤-⑥-|
③①②④ |--⑦-|
10
口口口口 |----|
口⑥⑤口 |①-②-|
口④③口 |③-④-|
①②①口 |⑤-⑥-|
11
口①③① |①---|
口口口口 |②-③-|
口口口②
口口口口

口⑤口⑤
口口口口
口④④口 |--④-|
口口口口 |--⑤-|
12
口口口口 |----|
口⑤⑥口 |①-②-|
口③④口 |③-④-|
口①②① |⑤-⑥-|
13
①③①口 |①---|
口口口口 |②-③-|
②口口口
口口口口

⑤口⑤⑤
口口口口
口④④口 |--④-|
口口口口 |--⑤-|
14
口口口口 |--①-|
口②④④ |②-③-|
①口口口 |④---|
口③⑤口 |⑤---|
15
⑧口①口 |①-②-|
③⑤⑧⑥ |③-④-|
口⑤②⑥ |⑤-⑥-|
④⑦口口 |⑦-⑧-|
16
口②④② |--①-|
③③⑤口 |②---|
①口⑥口 |③---|
口口⑦口 |④⑤⑥⑦|
17
⑦口⑦口 |①-②-|
⑦⑤⑦⑥ |③-④-|
口①口② |⑤-⑥-|
口③口④ |⑦---|
18
⑦⑤口口 |①-②-|
口口口⑥ |③-④-|
③①⑧② |⑤-⑥-|
口口④口 |⑦-⑧-|
19
口⑦⑧口 |①②③-|
③②①⑧ |④⑤⑥-|
⑦口口口 |⑦-⑧-|
口④⑤⑥ |----|
20
口口口口 |①---|
口①①口 |----|
口口口口 |----|
口②口口 |②---|
21
口口口口 |①---|
①③口口 |--②-|
口②②口 |----|
口口口口 |③---|
22
口③口③ |①---|
②口②口 |--②-|
口口口口 |----|
口①口口 |③---|
23
口口口口 |----|
④②口口 |①-②-|
③①口口 |--③-|
口口口口 |④---|
24
口口口口 |①---|
口口口口 |--②-|
口口口口 |----|
口①③② |③---|
25
口口口口 |①---|
口口③① |--②-|
口②②口 |----|
口口口口 |③---|
26
口口口口 |①---|
口口口口 |--②-|
②口②口 |----|
口③①③ |③---|
27
②③④⑤ |①---|
口口口① |----|
口口口口 |②③④⑤|
口⑥⑥口 |--⑥-|
28
③口⑥口 |----|
口①口② |①-②-|
①③④口 |③-④-|
⑤⑤口口 |⑤-⑥-|
29
④①⑤① |①---|
③④口② |②-③-|
③口口② |--④-|
口⑥⑥口 |⑤-⑥-|
30
③口⑥口 |----|
①口④② |①-②-|
①③口口 |③-④-|
⑤⑤口口 |⑤-⑥-|
31
口①口① |①-②-|
③⑤口⑤ |③-④-|
③口②口 |⑤-⑥-|
口⑥④⑥ |----|
32
口③口口 |①---|
口口口口 |--②-|
③①口口 |----|
口口②口 |③---|
33
①口口口 |①---|
口①口口 |--②-|
口口②口 |----|
口③口口 |③---|
34
口口①② |①---|
口口口① |--②-|
口口②口 |----|
口③③口 |③---|
35
④③②⑦ |①-②③|
①口口口 |④-⑤-|
口⑤口口 |--⑥-|
口口⑥口 |⑦---|
36
口口口口 |①---|
口口口③ |--②-|
口口口① |----|
②口③口 |③---|
37
口②①② |①---|
口口①口 |--②-|
口口口口 |----|
口③口口 |③---|
38
①②口口 |①---|
②口口口 |--②-|
口①口口 |----|
口③③口 |③---|
39
⑦⑥⑤④ |①②③-|
口①②③ |----|
口口口口 |④⑤⑥⑦|
口⑧⑧口 |--⑧-|
40
口口⑥口 |----|
③①口② |①-②-|
①③④口 |③-④-|
⑤⑤口口 |⑤-⑥-|
41
⑤①⑥① |①---|
③⑤④② |②-③-|
③口口② |④-⑤-|
口⑦⑦口 |⑥-⑦-|
42
③口⑥口 |----|
①口④② |①-②-|
①③口口 |③-④-|
⑤⑤口口 |⑤-⑥-|
43
③①口① |①---|
口⑤口④ |②-③-|
②⑤②④ |④-⑤-|
口⑥口口 |--⑥-|
44
口②口③ |①-②-|
①口口口 |--③-|
口口口④ |④-⑤-|
⑥口⑤口 |--⑥-|
45
①④①④ |①-②-|
③③⑥⑥ |③-④-|
⑥⑥②口 |⑤-⑥-|
口⑤口⑤ |----|
46
口口口口 |----|
口口口口 |----|
口口口口
口口口口
47
⑦口⑥口 |(134)①②③④|
①⑤⑧口 |⑤⑥⑦⑧|
口口④②
口③口口

口⑪口口
⑮口口⑩
口⑨⑯⑭ |⑨⑩⑪⑫|
口⑬⑫口 |⑬⑭⑮⑯|
48
③口⑥② |①②③④|
口①④口 |⑤⑥⑦⑧|
⑦⑤口口
口口⑧口

口口口口
⑪⑮口⑭
口口⑯⑩ |⑨⑩⑪⑫|
⑬⑨口⑫ |⑬⑭⑮⑯|
49
口③口② |①②③④|
口口⑥⑧ |⑤⑥⑦⑧|
⑤①口口
口⑦④口

⑨口口⑫
口⑬口口
口⑪口⑭ |⑨⑩⑪⑫|
⑮口⑯⑩ |⑬⑭⑮⑯|
50
口①①③ |①---②-|
口口口口 |--③---|
口口②口
口口口口

口口⑤口
口口口口
口口⑥④ |④---⑤-|
口口口口 |--⑥---|
51
①③②② |(201)①---|
③②①③ |--②-|
口①口口 |----|
口②①③ |③---|
52
⑥口口口 |①②③-|
口口⑤口 |④-⑤-|
⑦①②③ |⑥-⑦-|
口④口口
53
口①②口 |①---|
①②③③ |--②-|
③③口② |----|
口②①① |③---|
54
口口口口 |--①-|
①③⑤口 |②-③-|
口口口口 |④-⑤-|
②④口口
55
②①②① |①---|
口③口② |--②-|
①②①口 |----|
③口③③ |③---|
56
⑨⑤⑧口 |①②③④|
①口④⑥ |⑤⑥⑦⑧|
口⑦②口 |⑨---|
口③口口
57
口②口口 |①---|
口①口口 |----|
①②②① |②---|
口口①② |----|
58
口②②① |①---|
口口①口 |----|
口②②口 |②---|
①①口口 |----|
59
②④④② |--①-|
口⑤口⑤ |②---|
⑤口⑤口 |③-④-|
③①①③ |--⑤-|
60
口①口① |----|
口口口口 |----|
口①口① |①---|
口口口口 |----|
61
④⑥①⑥ |①-②-|
⑧②④① |③-④-|
①⑦口口 |⑤-⑥-|
口⑤③⑧ |⑦-⑧-|
62
⑥口③口 |--①-|
口⑤口① |--②-|
④口②② |③-④-|
②②口口 |⑤-⑥-|
63
口⑧④④ |①-②-|
③口②① |③-④-|
⑥①⑥⑧ |⑤-⑥-|
⑦⑤①口 |⑦-⑧-|
64
④口口口 |--①-|
口②口② |--②-|
④①③⑤ |③-④-|
口②⑥② |⑤-⑥-|
65
④①口② |①---|
①口①口 |--②-|
③①口口 |③-④-|
②⑤⑥④ |⑤-⑥-|
66
口口①口 |①---|
②①②① |--②-|
口②①②
口口口口

口⑤口③
口口口口
④口⑥口 |③-④-|
口口⑥口 |⑤-⑥-|
67
①口②④ |①-②-|
口①④② |③-④-|
口③口口
③口口口

⑧⑦口口
⑥口口口
⑤口口⑤ |⑤-⑥-|
口口⑦口 |⑦-⑧-|
68
口③①② |①---|
口①②口 |--②-|
口②①③ |----|
②①口③ |③---|
69
④⑥⑧⑥ |①-②-|
①⑦④① |③-④-|
①⑧②口 |⑤-⑥-|
口⑤③口 |⑦-⑧-|
70
⑥口口③ |--①-|
①⑤口口 |--②-|
④口②② |③-④-|
②②口口 |⑤-⑥-|
71
口⑧④④ |①-②-|
③口②① |③-④-|
⑥①⑥⑧ |⑤-⑥-|
⑦⑤①口 |⑦-⑧-|
72
④口口口 |--①-|
①②口② |--②-|
④口③⑤ |③-④-|
口②⑥② |⑤-⑥-|
73
④①口② |①---|
①口①口 |--②-|
③①口口 |③-④-|
②⑤⑥④ |⑤-⑥-|
74
口口①③ |①---|
②①②① |--②-|
④②①② |③-④-|
⑥口⑤⑤ |⑤-⑥-|
75
①口①口 |①-②-|
④③口③ |③-④-|
口口口口
口②口口

⑧⑥口口
口口口口
⑤⑦⑤口 |⑤-⑥-|
口口口⑦ |⑦-⑧-|
76
口⑨⑨口 |①-②-|
⑤⑥⑦⑧ |③-④-|
口口④② |⑤⑥⑦⑧|
③①①口 |-⑨--|
77
②口口口 |①---|
口口口口 |②---|
口②口口
口①①口

口口口口
④③口口
③口口口 |③--④|
口⑤口口 |--⑤-|
78
口口④⑥ |①-②-|
口口⑤③ |③-④-|
口口②⑦ |⑤-⑥-|
①口⑧口 |⑦-⑧-|
79
口③口口 |①---|
口⑤口口 |②---|
②③①口 |③--④|
②④口口 |--⑤-|
80
①口⑤口 |①-②-|
①口③口 |③-④-|
口口⑥④ |⑤-⑥-|
口口⑦② |⑦---|
81
口②④① |①---|
④⑥②③ |②-③-|
①口⑤⑥ |④-⑤-|
口①⑦口 |⑥-⑦-|
82
①口口① |①-②-|
口口②③ |③-④-|
③口口口
口口口④

口⑤⑤⑧
⑦口口口
口口⑥⑦ |⑤-⑥-|
口口口口 |⑦-⑧-|
83
⑥口④口 |①---|
⑤口②③ |②-③-|
④①④口 |④---|
口①①口 |⑤-⑥-|
84
口口③口 |①---|
口①口② |②-③-|
口①口① |④⑤⑥⑦|
④⑤⑥⑦ |----|
85
①口口① |①---|
口①①口 |----|
①口口① |----|
口口口口 |----|
86
③口口口 |----|
口口①口 |--①-|
口②口口 |②-③-|
口④④口 |--④-|
87
口②口口 |----|
⑥口①① |①-②-|
口④③③ |③-④-|
口口⑤⑤ |⑤-⑥-|
88
①②②① |①---|
口③④口 |②-③-|
口口口④ |--④-|
口③⑤⑤ |--⑤-|
89
口口②口 |----|
⑤⑤口④ |①-②-|
③③口口 |③-④-|
①①⑥口 |⑤-⑥-|
90
口口⑥④ |①-②-|
口口③口 |③-④-|
口口①② |⑤-⑥-|
口⑦⑦⑤ |--⑦-|
91
口②口口 |----|
⑥①④① |①-②-|
口③口③ |③-④-|
口⑤口⑤ |⑤-⑥-|
92
③③①① |①-②-|
⑦口⑤⑦ |③-④-|
④④②口 |--⑤-|
口⑥⑤口 |⑥-⑦-|
93
③④①① |--①-|
口口③口 |②---|
口口②② |③-④-|
口⑥⑤口 |⑤-⑥-|
94
⑨⑩⑪⑫ |①②③④|
⑤⑥⑦⑧ |⑤⑥⑦⑧|
①②③④ |⑨⑩⑪⑫|
⑬⑭⑮⑯ |⑬⑭⑮⑯|
95
口⑤口⑧ |①-②-|
③口口⑥ |③-④-|
口①④② |⑤-⑥-|
口⑦口口 |⑦-⑧-|
96
口⑦⑧口 |①②③-|
③②①⑧ |④⑤⑥-|
⑦④⑤⑥ |⑦-⑧-|
口⑧⑦口 |----|

accuracy: 100%
最終更新:2022年08月01日 03:39