アットウィキロゴ
ユメブキ
紫崎 雪,Risa Yuzuki,709sec. by BEMANI Sound Team "PHQUASE & SYUNN"

EXTREME

Level: 10.2
BPM: 200
Notes(hold): 805(26)

1
口口①⑤ |①-②-|
②⑧①⑤ |③-④-|
口③⑦① |⑤-⑥-|
口口④⑥ |⑦-⑧-|
2
①③⑦⑤ |①-②-|
②口④口 |③-④-|
口口口口 |⑤-⑥-|
口口口⑥ |⑦---|
3
口②口口 |①-②-|
口⑧③口 |③-④-|
①①⑦④ |⑤-⑥-|
⑤⑤①⑥ |⑦-⑧-|
4
①③⑤⑤ |①-②-|
口口口⑤ |③-④-|
②④口口 |⑤---|
口口口口 |----|
5
①口口V |①---|
|口口| |--②-|
|口口| |----|
∧口口① |③---|

2口口口
口②―<
―②口
口口口2

口口口③
V3口|
|口3∧
③口口口

6
口口口1 |----|
口①口口 |----|
口口②口 |①---|
1口口口 |②---|
7
口V①口 |①---|
口||口 |--②-|
口||口 |----|
口①∧口 |③---|

口口2口
②――<
口>―②
口2口口

口③V口
3||口
口||3
口∧③口
8
口口口口 |----|
口口口口 |----|
口口口口 |----|
口口口口 |----|
9
口1口口 |①---|
口口口口 |----|
口口口口 |----|
口口1口 |----|
10
口口口口 |----|
口口口口 |----|
口口口口 |----|
口口口口 |----|
11
①③口口 |----|
②口①② |①---|
口口③口 |②---|
口口口口 |③---|
12
口口②④ |①---|
口①③④ |②---|
口口口① |③---|
口口②③ |④---|
13
②③∨口 |①---|
口口|口 |②---|
③②①口 |--③-|
口口口口 |--④-|

口口口口
口口口口
口口4口
口④口口
14
③④口③ |①---|
②口口② |②---|
口口④口 |③---|
①口口口 |④---|
15
口∨③④ |①-②-|
口|口口 |③---|
口③④③ |--④-|
口②①口 |--⑤-|

口口口口
口口口口
口口口口
口口⑤口
16
∨②②口 |①---|
|口口口 |②---|
④2④③ |③---|
口③口① |④---|
17
口口④口 |①---|
口口①② |②---|
4③③口 |--③-|
口口②① |--④-|
18
口口口① |①---|
口②④③ |②---|
口口口口 |--③-|
口③口② |--④-|
19
口①④② |①---|
③②口③ |②---|
口④口口 |③---|
口口口口 |④---|
20
④②口口 |①---|
④③①口 |②---|
①口口口 |③---|
③②口口 |④---|
21
口∨③② |①---|
口|口口 |②---|
口①②③ |--③-|
口口口口 |--④-|

口口口口
口口口口
口4口口
口口④口
22
口口口③ |①---|
②③②口 |②---|
口口口③ |③---|
②④④① |④---|
23
口①①口 |①---|
口②口② |----|
口①①口 |②---|
口③口③ |③---|
24
口口口口 |①---|
②口②口 |②---|
口③口③ |③---|
①口①口 |④---|

口∨口∨
口④口④
口口口口
口口口口
25
③口④口 |①---|
②4口4 |②---|
口口①口 |--③-|
口口口口 |--④-|
26
③口口口 |①---|
口口口口 |②---|
口口①口 |③---|
口口②口 |----|
27
口⑦④② |①---|
口①①口 |②-③-|
⑤口④② |④-⑤-|
③口⑥⑥ |⑥-⑦-|

28
⑥⑥③口 |①---|
②④①① |②-③-|
口口口⑤ |④-⑤-|
②④⑦口 |⑥-⑦-|
29
口口口口 |①---|
②④口口 |②---|
①口③ |③---|
口口口口 |④---|
30
⑦口⑥⑥ |①---|
口口②④ |②-③-|
⑦1①口 |④-⑤-|
⑤③②④ |⑥-⑦-|
31
口口口口 |①-②-|
口⑤口④ |③---|
口口②① |④---|
口>③口 |⑤---|
32
②②口⑤ |①---|
口口①口 |②-③-|
③口④④ |④-⑤-|
口口1口 |⑥-⑦-|

口口口口
⑥口⑦口
口口口口
口⑥口口
33
口③②④ |①---|
口口口口 |②---|
①口口 |③---|
口口口口 |④---|
34
⑤⑤②口 |①---|
口①口口 |②-③-|
口1④口 |④-⑤-|
③口④口 |⑥-⑦-|

口口口口
⑦口口⑥
口⑦口口
口口口⑥
35
口⑦④② |①---|
口①①口 |②-③-|
⑤口④② |④-⑤-|
③口⑥⑥ |⑥-⑦-|
36
口口③⑤ |①---|
②④①① |②-③-|
口口口口 |④-⑤-|
②④口口 |⑥-⑦-|

⑥⑥口口
口口⑦口
口口口口
口口口口
37
口口口口 |①---|
②④口口 |②---|
①口③ |③---|
口口口口 |④---|
38
口⑤④③ |①---|
⑤口②口 |②-③-|
口1①口 |④---|
④④⑤口 |⑤---|
38
口⑤⑥⑥ |①---|
口①④① |②-③-|
口③口① |④-⑤-|
口⑦口② |⑥-⑦-|
39
⑥⑥⑤口 |①---|
①④口③ |②-③-|
①②口口 |④-⑤-|
口口⑦口 |⑥-⑦-|
40
⑨⑥口③ |①-②-|
②⑦⑤口 |③-④-|
口⑧口① |⑤-⑥⑦|
口④口口 |⑧-⑨-|
41
口口①口 |①---|
③⑤④② |②-③-|
①口口口 |④-⑤-|
⑤③②④ |⑥-⑦-|

口口口口
口口口口
⑦⑦⑥⑥
口口口口
42
④③②① |----|
口口口口 |①-②-|
口口口口 |③-④-|
口口口口 |----|
43
口⑦口⑦ |①-②-|
口口⑤口 |③-④-|
口口⑥⑤ |--⑤-|
①②③④ |⑥-⑦-|
44
口口口口 |----|
①①④④ |①---|
口②口口 |②-③-|
口口③口 |④---|
45
②①②口 |①---|
⑤⑤口口 |②---|
口口③口 |③-④-|
口④口口 |⑤---|
46
①②③④ |----|
口口口口 |①-②-|
口口口口 |③-④-|
口口口口 |----|
47
⑥口口口 |①-②-|
口⑤口口 |③-④-|
⑤⑥口口 |--⑤-|
④③②① |--⑥-|
48
口①②① |①---|
⑥⑥④④ |②-③-|
口口口口 |④-⑤-|
口⑤③口 |⑥---|
49
②①②口 |①---|
口口⑤⑤ |②---|
口③口口 |③-④-|
口口④口 |⑤---|
51
④③②① |----|
口口口口 |①-②-|
口口口口 |③-④-|
①②③④ |----|
52
口⑤⑤口 |①-②-|
④③②① |③-④-|
①②③④ |--⑤-|
⑥口口⑥ |--⑥-|
53
①口⑤⑤ |①---|
④③①② |②-③-|
③④⑥⑥ |④-⑤-|
⑦⑦②口 |⑥-⑦-|
54
①①口口 |①---|
口②③口 |②-③-|
口④⑤口 |④-⑤-|
口口口口 |⑥-⑦-|

⑦⑦⑥⑥
口口口口
口口口口
口口口口
55
口⑧口⑦ |①-②-|
口⑥口⑤ |③-④-|
口④口③ |⑤-⑥-|
②口①口 |⑦-⑧-|
56
⑧口⑦口 |①-②-|
⑥口⑤口 |③-④-|
④口③口 |⑤-⑥-|
口②口① |⑦-⑧-|
57
口⑩⑪⑫ |①-②-③-|
口⑨⑧⑦ |④-⑤-⑥-|
口④⑤⑥ |⑦-⑧-⑨-|
口③②① |⑩-⑪-⑫-|
58
口③口口 |①---|
②口口③ |----|
口口口口 |②---|
口②口① |③---|
59
②口①口 |①---|
④③①④ |②---|
①①③① |③---|
口口①② |④---|
60
⑦③⑦③ |①--②|
口⑥②口 |③-④-|
口口口④ |⑤--⑥|
①⑤①⑤ |⑦-⑧-|

口口口口
口口口口
口口口口
⑧口口口
61
口②口口 |①-②-|
口口口④ |③-④-|
①①③③ |--⑤-|
口口口口 |⑥-⑦-|

口口口⑤
口口⑥口
口⑦口口
口口口⑤
62
③⑦③⑦ |①--②|
⑧②⑥口 |③-④-|
④口⑤⑤ |⑤--⑥|
①口①口 |⑦-⑧-|
63
⑤口③口 |①-②-|
口⑥口② |③-④-|
④④⑦口 |--⑤-|
⑤①①② |⑥-⑦-|
64
口④④③ |①--②|
⑤⑦②⑤ |③-④-|
⑥口口⑥ |⑤---|
口①⑦① |⑥-⑦-|
65
口⑥⑦③ |--①②|
⑤口②口 |③-④-|
口①⑤口 |⑤--⑥|
④⑥⑦④ |--⑦-|
66
口口口② |①-②-|
口口④③ |③---|
①<口口 |④-⑤-|
口口口口 |--⑥-|

口口口口
口口口口
5口⑤口
口⑥口口
67
④口③③ |①-②-|
①⑤口③ |③---|
口②⑥口 |--④-|
口口口口 |⑤-⑥-|
68
⑦③⑦③ |①--②|
口⑥②口 |③-④-|
口口口④ |⑤--⑥|
①⑤①⑤ |⑦-⑧-|

口口口口
口口口口
口口口口
⑧口口口
69
口②口口 |①-②-|
口口口④ |③-④-|
①①③③ |--⑤-|
口口口口 |⑥-⑦-|

口口口⑤
口口⑥口
口⑦口口
口口口⑤
70
③⑦③⑦ |①--②|
口②⑥口 |③-④-|
④口⑧⑤ |⑤-⑥-|
①⑤①口 |⑦-⑧-|
71
⑤口③口 |①-②-|
口⑥口② |③-④-|
④④⑦口 |--⑤-|
⑤口①② |⑥-⑦-|
72
口④④③ |①--②|
⑤⑦②⑤ |③-④-|
⑥口口⑥ |⑤---|
口①⑦① |⑥-⑦-|
73
口⑥⑦③ |--①②|
⑤口②口 |③-④-|
口①⑤口 |⑤--⑥|
④⑥⑦④ |--⑦-|
74
∨口口② |①-②-|
|口口口 |--③-|
①口口口 |④-⑤-|
口口口口 |⑥-⑦-|

口口口口
口口口口
7口③⑤
口⑦⑥④
75
③④②② |①---|
③④①② |②---|
口①口口 |③--④|
口口口⑤ |--⑤-|
76
口⑥②口 |①---|
口口⑤口 |②-③-|
⑥④①② |④-⑤-|
③口口⑦ |⑥-⑦-|
77
④⑦③口 |①-②-|
口②口⑥ |③-④-|
⑦⑤①③ |⑤-⑥-|
口⑤口⑧ |⑦-⑧-|
78
口⑦②口 |①---|
口③口⑥ |②-③④|
⑦④口② |⑤-⑥-|
口⑤①⑧ |⑦-⑧-|
79
⑦口③④ |①-②-|
②口口⑥ |③-④-|
⑦⑤①③ |⑤-⑥-|
口⑤⑥⑧ |⑦-⑧-|
80
口⑥②口 |①---|
口口口⑤ |②-③-|
⑥④①② |④-⑤-|
③口口⑦ |⑥-⑦-|
81
②口④③ |①-②-|
⑦口口口 |③-④-|
口⑤①③ |⑤-⑥-|
⑦口⑥⑧ |⑦-⑧-|
82
⑧口②⑥ |①---|
口③口口 |②-③④|
⑦④①② |⑤-⑥-|
口⑤口口 |⑦-⑧-|
83
口④口口 |①②③-|
口口①⑤ |④-⑤-|
⑦⑥②口 |⑥-⑦-|
⑨⑧③口 |⑧-⑨-|
84
②②口口 |①-②-|
口④口口 |③-④-|
口口①③ |⑤-⑥-|
口口口口 |⑦-⑧-|

口口⑤⑥
口口⑤⑥
口口⑧口
⑦⑦口口
85
①①>⑦ |①-②-|
④⑤⑤口 |③-④-|
口③口② |⑤-⑥-|
口口⑥⑥ |⑦-⑧-|

口口口8
口口口口
口口口口
口口口口
86
①①⑥口 |--①-|
⑤④口② |②---|
⑤④①② |③-④-|
口②口③ |⑤-⑥-|
87
①口>⑤ |①-②-|
口口③口 |③-④-|
口口口口 |⑤-⑥-|
②口口④ |⑦-⑧-|

口口口6
口口口⑧
口口口口
口口⑦口
88
①①口口 |①-②-|
口口口口 |③-④-|
③口②口 |⑤-⑥-|
口口口④ |⑦-⑧-|

⑧口口口
口⑥⑦口
口⑥口口
⑤⑤口口
89
口④①① |①-②-|
④口口口 |③-④-|
②口④口 |--⑤-|
口口③口 |--⑥-|

⑥口口⑥
口口⑤口
口口口⑥
⑤⑤口口
90
⑨⑨口口 |①-②-|
⑥③口⑤ |③-④-|
⑦①④口 |⑤-⑥⑦|
⑧口口② |⑧-⑨-|
91
口口①口 |①-②-|
口③④口 |③-④-|
口③③① |⑤-⑥-|
口口②口 |⑦-⑧-|

⑧⑧口⑥
⑤口口⑥
口口口口
⑦⑦口口
92
口口口口 |----|
口口口口 |----|
口口口口 |----|
口口口口 |----|
最終更新:2022年04月07日 16:22