アットウィキロゴ
Fireball
BEMANI Sound Team "Bumble Bee"

BASIC

Level: 4
BPM: 180
Notes: 327

1
口口口口 |----|
口口口口 |----|
口口口口 |----|
口口口口 |----|
2
口口口口 |①---|
口②①口 |----|
口①②口 |②---|
口口口口 |----|
3
口口口① |①---|
口口口口 |----|
口口口口 |----|
①口口口 |----|
4
口口口口 |①---|
口①②口 |----|
口②①口 |②---|
口口口口 |----|
5
①口口口 |①---|
口口口口 |----|
口口口口 |----|
口口口① |----|
6
口口口口 |①---|
口②①口 |----|
口①②口 |②---|
口口口口 |----|
7
②口口① |①---|
口口口口 |----|
口口口口 |②---|
①口口② |----|
8
口口口① |①---|
口口②口 |----|
口口口口 |②---|
口口口口 |----|
9
口口口口 |①---|
口口口口 |----|
口①口口 |②---|
②口口口 |----|
10
口口口口 |①---|
口口口口 |----|
口口口口 |②---|
②①①② |----|
11
③口口口 |①---|
口②口口 |②---|
口口①口 |③---|
口口口口 |----|
12
口口口口 |①---|
口口口口 |----|
口口口口 |②---|
②①①② |----|
13
口口口③ |①---|
口口②口 |②---|
口①口口 |③---|
口口口口 |----|
14
口口口口 |①---|
口口口口 |----|
①口口① |②---|
口②②口 |----|
15
③口口口 |①---|
口②口口 |②---|
口口①口 |③---|
口口口口 |----|
16
口口口口 |①---|
口口口口 |----|
①口口① |②---|
口②②口 |----|
17
④口口口 |①---|
口③口口 |②---|
口①②口 |③---|
口口口口 |④---|
18
口口①① |①---|
口口②② |----|
口口口口 |②---|
口口口口 |----|
19
口口口口 |①---|
口口口口 |----|
口口口口 |②---|
②①口口 |----|
20
口口①① |①---|
口口②② |----|
口口口口 |②---|
口口口口 |----|
21
口口口口 |①---|
口口口口 |----|
②①口口 |②---|
口口口口 |----|
22
口口①① |①---|
口口②② |----|
口口口口 |②---|
口口口口 |----|
23
口口口口 |①---|
②①口口 |----|
口口口口 |②---|
口口口口 |----|
24
口口①① |①---|
口口②② |----|
口口口口 |②---|
口口口口 |----|
25
口①口口 |①---|
口②口口 |----|
口口口口 |②---|
口口口口 |----|
26
①①口口 |①---|
②②口口 |----|
口口口口 |②---|
口口口口 |----|
27
口口口口 |①---|
口口口口 |----|
口口口② |②---|
口口①口 |----|
28
①①口口 |①---|
②②口口 |----|
口口口口 |②---|
口口口口 |----|
29
口口口口 |①---|
口口口② |----|
口口①口 |②---|
口口口口 |----|
30
①①口口 |①---|
②②口口 |----|
口口口口 |②---|
口口口口 |----|
31
口口口② |①---|
口口①口 |----|
口口口口 |②---|
口口口口 |----|
32
①①口口 |①---|
②②口口 |----|
口口口口 |②---|
口口口口 |----|
33
口①①口 |①---|
口口口口 |----|
口②②口 |②---|
口口口口 |----|
34
①①口口 |①---|
口口②③ |----|
口口口口 |②---|
口口口口 |③---|
35
口口口口 |①---|
口口口口 |----|
①①口口 |②---|
口口②③ |③---|
36
口口口口 |①---|
口口口口 |----|
口口②③ |②---|
①①口口 |③---|
37
③①口口 |①---|
②①口口 |----|
口口口口 |②---|
口口口口 |③---|
38
口口①① |①---|
③②口口 |----|
口口口口 |②---|
口口口口 |③---|
39
口口口口 |①---|
口口口口 |----|
口口①① |②---|
③②口口 |③---|
40
口口口口 |①---|
口口口口 |----|
③②口口 |②---|
口口①① |③---|
41
口口①③ |①---|
口口①② |----|
口口口口 |②---|
口口口口 |③---|
42
口①口口 |①---|
口口②口 |②---|
口③口口 |③---|
口口④口 |④---|
43
④③口口 |①---|
口口口口 |②---|
口口②口 |③---|
口①口口 |④---|
44
口口①口 |①---|
口②口口 |②---|
口口③口 |③---|
口④口口 |④---|
45
口口③④ |①---|
口口口口 |②---|
口②口口 |③---|
口口①口 |④---|
46
口①口口 |①---|
口口②口 |②---|
口③口口 |③---|
口口④口 |④---|
47
④口口口 |①---|
③口口口 |②---|
口口②口 |③---|
口①口口 |④---|
48
口口①口 |①---|
口②口口 |②---|
口口③口 |③---|
口④口口 |④---|
49
②②口口 |①---|
口口口口 |----|
口口口口 |②---|
口口①① |----|
50
口口③口 |①---|
口②口口 |②---|
口口①口 |③---|
口口口口 |----|
51
②①口② |①---|
③口口③ |----|
口口口口 |②---|
口口口口 |③---|
52
口口①口 |①---|
口②口口 |②---|
口口③口 |③---|
口口口口 |----|
53
口口口口 |①---|
③口口③ |----|
②①口② |②---|
口口口口 |③---|
54
口③口口 |①---|
口口②口 |②---|
口①口口 |③---|
口口口口 |----|
55
②口①② |①---|
③口口③ |----|
口口口口 |②---|
口口口口 |③---|
56
口①口口 |①---|
口口②口 |②---|
口③口口 |③---|
口口口口 |----|
57
③口口③ |①---|
口口口口 |----|
②口①② |②---|
口口口口 |③---|
58
口口口口 |①---|
口①①口 |----|
口①①口 |----|
口口口口 |----|
59
口口口口 |----|
口口口口 |----|
口口口口 |----|
口口口口 |----|
60
①口口口 |①---|
口②口口 |----|
口口口口 |②---|
口口口口 |----|
61
口口口口 |①---|
口口口口 |----|
口口①口 |②---|
口口口② |----|
62
③口口口 |①---|
口口②口 |②--③|
④①①口 |----|
口口口口 |④---|
63
口口口③ |①---|
口②口口 |②--③|
口①①④ |----|
口口口口 |④---|
64
③④④口 |①---|
②口口口 |②--③|
口①①口 |----|
口口口口 |④---|
65
口④④③ |①---|
口口口② |②--③|
口①①口 |----|
口口口口 |④---|
66
③口口口 |①---|
口口②口 |②--③|
④①①口 |----|
口口口口 |④---|
67
口口口③ |①---|
口②口口 |②--③|
口①①④ |----|
口口口口 |④---|
68
③④④口 |①---|
②口口口 |②--③|
口①①口 |----|
口口口口 |④---|
69
口④④③ |①---|
口口口② |②--③|
口①①口 |----|
口口口口 |④---|
70
①⑤⑤口 |①-②-|
口④④口 |③---|
口②口口 |④---|
口口③口 |⑤---|
71
口⑤⑤① |①-②-|
口④④口 |③---|
口口②口 |④---|
口③口口 |⑤---|
72
①⑤⑤口 |①-②-|
口口口口 |③---|
④②口④ |④---|
口口③口 |⑤---|
73
口⑤⑤① |①-②-|
口口口口 |③---|
④口②④ |④---|
口③口口 |⑤---|
74
①⑤⑤口 |①-②-|
口④④口 |③---|
口②口口 |④---|
口口③口 |⑤---|
75
口⑤⑤① |①-②-|
口④④口 |③---|
口口②口 |④---|
口③口口 |⑤---|
76
①⑤⑤口 |①-②-|
口口口口 |③---|
④②口④ |④---|
口口③口 |⑤---|
77
口⑤⑤① |①-②-|
口口口口 |③---|
④口②④ |④---|
口③口口 |⑤---|
78
口口口口 |①---|
口②①口 |----|
口①②口 |②---|
口口口口 |----|
79
②口口① |①---|
口口口口 |----|
口口口口 |②---|
①口口② |----|
80
口口口口 |①---|
口②①口 |----|
口①②口 |②---|
口口口口 |----|
81
②口口① |①---|
口③③口 |----|
口③③口 |②---|
①口口② |③---|

accuracy: 100%
最終更新:2022年04月10日 16:22