アットウィキロゴ
Fireball
BEMANI Sound Team "Bumble Bee"

ADVANCED

Level: 6
BPM: 180
Notes: 429

1
口口口口 |----|
口口口口 |----|
口口口口 |----|
口口口口 |----|
2
口口口口 |①---|
口②①口 |----|
口①②口 |②---|
口口口口 |----|
3
口口口口 |①---|
①口口口 |----|
②口口口 |②---|
口口口口 |----|
4
口口口口 |①---|
口①②口 |----|
口②①口 |②---|
口口口口 |----|
5
口口③① |--①-|
口口口口 |----|
口口口② |②---|
口口口口 |③---|
6
口口口口 |①---|
口②①口 |----|
口①②口 |②---|
口口口口 |----|
7
①口口① |①---|
②口口② |②---|
③口口③ |③---|
④口口④ |④---|
8
②③③② |①---|
③口口③ |②---|
口①①口 |③---|
口口口口 |----|
9
④口口口 |①---|
口口口口 |②---|
口③口① |③---|
口口②口 |④---|
10
口口口口 |①---|
口②②口 |②---|
①口口③ |③---|
口④④口 |④---|
11
口口口④ |①---|
口②②口 |②---|
①口③口 |③---|
口口口口 |④---|
12
口口口口 |①---|
口②②口 |②---|
③口口① |③---|
口④④口 |④---|
13
④口口口 |①---|
口②②口 |②---|
口③口① |③---|
口口口口 |④---|
14
口口口口 |①---|
口②②口 |②---|
①口口③ |③---|
口④④口 |④---|
15
口口口④ |①---|
口②②口 |②---|
①口③口 |③---|
口口口口 |④---|
16
口口口口 |①---|
口②②口 |②---|
③口口① |③---|
口④④口 |④---|
17
④口口口 |①-②-|
口口口② |----|
口③口① |③---|
口口口口 |④---|
18
口口口② |①---|
口①①口 |----|
口口口② |②---|
口口口口 |----|
19
口③③口 |①---|
口①①口 |----|
口口口口 |②---|
口②②口 |③---|
20
②口口口 |①---|
口①①口 |----|
②口口口 |②---|
口口口口 |----|
21
口③③口 |①---|
口①①口 |----|
口口口口 |②---|
口②②口 |③---|
22
口口口② |①---|
口①口口 |----|
口口①② |②---|
口口口口 |----|
23
口③③口 |①---|
口①①口 |----|
口口口口 |②---|
口②②口 |③---|
24
②口口口 |①---|
口口①口 |----|
②①口口 |②---|
口口口口 |----|
25
口口口口 |①---|
口①①口 |----|
③口口③ |②---|
口②②口 |③---|
26
口口口口 |①---|
①口③口 |②---|
口②口④ |③---|
口口口口 |④---|
27
口④口口 |①---|
口口口① |②---|
③口口口 |③---|
口口②口 |④---|
28
口口口口 |①---|
口③口① |②---|
④口②口 |③---|
口口口口 |④---|
29
口口④口 |①---|
①口口口 |②---|
口口口③ |③---|
口②口口 |④---|
30
口口口口 |①---|
①口③口 |②---|
口口口口 |③---|
口②口④ |④---|
31
口④口口 |①---|
口口口① |②---|
③口口口 |③---|
口口②口 |④---|
32
口口口口 |①---|
口③口① |②---|
口口口口 |③---|
④口②口 |④---|
33
①口③④ |①---|
口口③④ |②---|
口②口口 |③---|
口口口口 |④---|
34
③②口口 |①---|
口口口口 |----|
口口①口 |②---|
口口口口 |③---|
35
口口②③ |①---|
口口口口 |----|
口①口口 |②---|
口口口口 |③---|
36
④口口口 |①---|
口③口口 |②---|
口口②① |③---|
口口口口 |④---|
37
口口口④ |①---|
口口③口 |②---|
①②口口 |③---|
口口口口 |④---|
38
口口口口 |①---|
③②口口 |----|
口口口① |②---|
口口口口 |③---|
39
口口口口 |①---|
口口②③ |----|
①口口口 |②---|
口口口口 |③---|
40
④口口口 |①---|
口③口口 |②---|
口口②① |③---|
口口口口 |④---|
41
口口③④ |①---|
口口③④ |②---|
①②口口 |③---|
口口口口 |④---|
42
④口④口 |①---|
口口口口 |②---|
③口①口 |③---|
口②口口 |④---|
43
口口口② |①---|
口①④④ |②---|
口口口口 |③---|
口口③③ |④---|
44
④口④口 |①---|
口口口口 |②---|
③口①口 |③---|
口②口口 |④---|
45
口口口② |①---|
口①③④ |②---|
口口口口 |③---|
口口④③ |④---|
46
口④口④ |①---|
口口口口 |②---|
口①②③ |③---|
口口口口 |④---|
47
②口口口 |①---|
③③口口 |②---|
口口口口 |③---|
④④①口 |④---|
48
口④口④ |①---|
口口口口 |②---|
口①②③ |③---|
口口口口 |④---|
49
①口①口 |①--②|
口②口② |--③-|
口③口③
口口口口

⑥④⑥④
口口口口
⑤口⑤口 |-④--|
口口口口 |⑤-⑥-|
50
口口④口 |①---|
口口口口 |②---|
④③口口 |③---|
口②①口 |--④-|
51
口口口口 |----|
①③①③ |①---|
口②口② |②---|
口口口口 |③---|
52
口④口口 |①---|
口口口口 |②---|
口口③④ |③---|
口①②口 |--④-|
53
口口口口 |----|
③①③① |①---|
②口②口 |②---|
口口口口 |③---|
54
口口④口 |①---|
④口口口 |②---|
口③口口 |③---|
口②①口 |--④-|
55
口①口① |----|
口③口③ |①---|
口②口② |②---|
口口口口 |③---|
56
口④口口 |①---|
口口口④ |②---|
口口③口 |③---|
口①②口 |--④-|
57
①口①口 |----|
口口口口 |①---|
②口②口 |②---|
③口③口 |③---|
58
口口口口 |①---|
口口①口 |----|
口①口① |----|
口口口口 |----|
59
口口口口 |----|
口口口口 |----|
口口口口 |----|
口口口口 |----|
60
口口口口 |①---|
口口口口 |----|
口口②口 |②---|
口口口① |----|
61
②口口③ |①---|
口①口口 |----|
口口口口 |②---|
口口口口 |③---|
62
④④口口 |①-②-|
口⑤⑤口 |③--④|
口②口口 |----|
口③①① |⑤---|
63
口③④④ |①-②-|
口⑤⑤口 |③--④|
口③②② |----|
①口口口 |⑤---|
64
口口③④ |①-②-|
口⑤⑤口 |③--④|
口②③④ |----|
口口①口 |⑤---|
65
④③口口 |①-②-|
口⑤⑤口 |③--④|
④③②口 |----|
口①口口 |⑤---|
66
④④口口 |①-②-|
口⑤⑤口 |③--④|
口②口口 |----|
口③①① |⑤---|
67
口③④④ |①-②-|
口⑤⑤口 |③--④|
口③②② |----|
①口口口 |⑤---|
68
口口③④ |①-②-|
口⑤⑤口 |③--④|
口②③④ |----|
口口①口 |⑤---|
69
④③口⑤ |①-②-|
口口⑥口 |③--④|
④③②口 |----|
口①口口 |⑤-⑥-|
70
⑦口⑧口 |①-②-|
口⑤口⑥ |③-④-|
口③口④ |⑤-⑥-|
口①口② |⑦-⑧-|
71
口⑦口⑧ |①-②-|
⑤口⑥口 |③-④-|
③口④口 |⑤-⑥-|
①口②口 |⑦-⑧-|
72
口口口口 |①-②-|
口口口口 |③---|
④⑤⑥口 |④-⑤-|
口③②① |⑥---|
73
④口口口 |①-②-|
口③②① |③---|
⑤⑥⑦口 |④-⑤-|
口口口口 |⑥-⑦-|
74
口②口① |①-②-|
口④口③ |③-④-|
口⑥口⑤ |⑤-⑥-|
⑧口⑦口 |⑦-⑧-|
75
②口①口 |①-②-|
④口③口 |③-④-|
⑥口⑤口 |⑤-⑥-|
口⑧口⑦ |⑦-⑧-|
76
口③②① |①-②-|
④⑤⑥口 |③---|
口口口口 |④-⑤-|
口口口口 |⑥---|
77
口口口口 |①-②-|
口口口口 |③---|
口③②① |④-⑤-|
④⑤⑥口 |⑥---|
78
口口口口 |①---|
口②口① |----|
①口②口 |②---|
口口口口 |----|
79
④③②① |①---|
口口口口 |②---|
口①口口 |③---|
口口口口 |④---|
80
口口口口 |①---|
口①②口 |----|
口②①口 |②---|
口口口口 |----|
81
①②③④ |①---|
口④口口 |②---|
口④①口 |③---|
口口口口 |④---|

accuracy: 100%
最終更新:2022年04月10日 16:34