アットウィキロゴ
Fireball
BEMANI Sound Team "Bumble Bee"

EXTREME

Level: 10.2
BPM: 180
Notes: 859

1
口口口口 |----|
口口口口 |----|
口口口口 |----|
口口口口 |----|
2
⑧口口⑨ |①-②③|
⑧⑥⑦⑨ |④⑤⑥⑦|
①④⑤① |⑧---|
口②③口 |⑨---|
3
口⑨⑩口 |①-②③|
⑧⑥⑦⑪ |④⑤⑥⑦|
口④⑤口 |⑧-⑨-|
①②③① |⑩-⑪-|
4
⑧口口⑨ |①-②③|
⑧⑥⑦⑨ |④⑤⑥⑦|
口④⑤口 |⑧---|
①②③① |⑨---|
5
口⑨⑩口 |①-②③|
⑧⑥⑦⑪ |④⑤⑥⑦|
口④⑤口 |⑧-⑨-|
①②③① |⑩-⑪-|
6
⑧口口⑨ |①-②③|
⑧⑥⑦⑨ |④⑤⑥⑦|
口④⑤口 |⑧---|
①②③① |⑨---|
7
口⑧口口 |①-②③|
⑧⑥⑦⑨ |④⑤⑥⑦|
口④⑤⑩ |⑧---|
①②③① |⑨-⑩-|
8
①口口⑥ |①-②③|
口口⑤口 |④-⑤-|
④③②⑩ |⑥-⑦⑧|
口⑦⑧⑨ |⑨-⑩-|
9
⑥⑥②口 |①-②-|
①③口口 |③-④-|
口⑤④口 |⑤---|
口口口口 |⑥---|
10
口口口口 |①---|
口口③口 |②-③-|
口口口②
①①口口

口口口口
口口口⑤
口口④口 |④-⑤-|
口⑥口口 |--⑥-|
11
②④口口 |①-②-|
⑥①口口 |③-④-|
③⑤口口 |⑤-⑥-|
⑦⑧口口 |⑦-⑧-|
12
口口①① |①---|
口③口口 |②---|
口④口⑤ |③-④-|
口口②② |--⑤-|
13
口口③① |①-②-|
口口②⑤ |③-④-|
口口④⑦ |⑤-⑥-|
口口⑧⑥ |⑦-⑧-|
14
①①口口 |①---|
口口③口 |②---|
⑤口④口 |③-④-|
②②口口 |--⑤-|
15
②④口口 |①-②-|
③①口口 |③-④-|
⑦⑤口口 |⑤-⑥-|
⑧⑥口口 |⑦-⑧-|
16
口口①① |①---|
口③口口 |②---|
口④口⑤ |③-④-|
口口②② |--⑤-|
17
口口④① |①-②-|
口口②③ |③-④-|
口口⑤口 |⑤-⑥-|
口口⑥口 |----|
18
口口⑨⑤ |①-②-|
口⑧口⑥ |③-④-|
口④口⑦ |⑤⑥⑦-|
①③口② |⑧-⑨-|
19
⑤④⑤④ |--①-|
口⑤④口 |②-③-|
口②①口 |④---|
口口③口 |⑤---|
20
口口⑨⑤ |①-②-|
口⑧口⑥ |③-④-|
口④口⑦ |⑤⑥⑦-|
①③口② |⑧-⑨-|
21
口④⑤口 |--①-|
口口②口 |②-③-|
④⑤④⑤ |④---|
口③①口 |⑤---|
22
口口⑨⑤ |①-②-|
口⑧口⑥ |③-④-|
口口口⑦ |⑤⑥⑦-|
①③④② |⑧-⑨-|
23
⑤④⑤④ |--①-|
口⑤④口 |②-③-|
口②①口 |④---|
口口③口 |⑤---|
24
口⑥⑧口 |①-②-|
⑤口⑨③ |③-④-|
⑤⑦①③ |⑤-⑥-|
口②④口 |⑦-⑧⑨|
25
⑤⑤口⑥ |①-②-|
口⑦⑦③ |③-④-|
口口①③ |⑤-⑥-|
口②④口 |⑦---|
26
⑧口⑧⑤ |①-②-|
①口口⑥ |③-④-|
③②口⑦ |⑤⑥⑦-|
⑨④口口 |⑧-⑨-|
27
⑥⑦⑤④ |--①-|
口③口口 |②-③-|
口①②口 |④-⑤-|
口④⑥口 |⑥-⑦-|
28
⑧口⑧⑤ |①-②-|
④③⑨⑥ |③-④-|
②①口⑦ |⑤⑥⑦-|
口口口口 |⑧-⑨-|
29
⑥⑦⑤④ |--①-|
口口口口 |②-③-|
口②③口 |④-⑤-|
口④①⑥ |⑥-⑦-|
30
口⑧口⑧ |①-②-|
⑤口①② |③-④-|
⑥口③④ |⑤⑥⑦-|
⑦口⑨口 |⑧-⑨-|
31
④口口⑥ |--①-|
⑥⑦⑤④ |②-③-|
口③②口 |④-⑤-|
口①口口 |⑥-⑦-|
32
口⑧⑨口 |①-②-|
口口⑤⑦ |③-④-|
⑥④⑤③ |⑤-⑥-|
口②①③ |⑦-⑧⑨|
33
⑤口⑦① |①-②-|
⑤④⑦⑥ |③-④-|
口口口口 |⑤-⑥-|
口②③口 |⑦---|
34
⑤⑥⑦口 |①-②-③-|
⑧⑨⑩口 |④---|
③①②④ |⑤-⑥-⑦-|
③①②④ |⑧-⑨-⑩-|
35
⑤口口⑥ |①-②-③-|
⑨⑦⑧⑩ |④---|
①③④② |⑤-⑥-⑦-|
①③④② |⑧-⑨-⑩-|
36
口⑦⑥⑤ |①-②-③-|
口⑩⑨⑧ |④---|
①③④② |⑤-⑥-⑦-|
①③④② |⑧-⑨-⑩-|
37
⑤⑥⑦口 |①-②-③-|
⑩⑨⑧口 |④---|
④②③① |⑤-⑥-⑦-|
④②③① |⑧-⑨-⑩-|
38
⑤⑥⑦口 |①-②-③-|
⑧⑨⑩口 |④---|
②④①③ |⑤-⑥-⑦-|
②④①③ |⑧-⑨-⑩-|
39
⑤口口⑥ |①-②-③-|
⑨⑦⑧⑩ |④---|
①③④② |⑤-⑥-⑦-|
①③④② |⑧-⑨-⑩-|
40
口⑦⑥⑤ |①-②-③-|
口⑧⑨⑩ |④---|
①③④② |⑤-⑥-⑦-|
①③④② |⑧-⑨-⑩-|
41
⑦⑥⑤口 |①-②-③-|
口口⑧口 |④---|
③①②④ |⑤-⑥-⑦-|
③①②④ |⑧---|
42
口⑧⑨口 |①-②③|
①⑦⑩① |④⑤⑥-|
口③②口 |⑦-⑧-|
口④⑤⑥ |⑨-⑩-|
43
①口口① |①-②③|
口口口口 |④⑤⑥-|
口②③口
⑥⑤④口

⑨口口⑨
⑧口口⑦
⑧口口⑦ |⑦----⑧--|
口口口口 |--⑨-|
44
口①①口 |①-②③|
口口口口 |④⑤⑥-|
口②③口
⑥⑤④口

⑪口⑩⑨
⑧口口口
口口口⑦ |⑦-⑧-|
口口口口 |⑨⑩-⑪|
45
⑨①口⑨ |①-②③|
⑧口口⑦ |④⑤⑥-|
⑧②③⑦ |⑦----⑧--|
⑥⑤④口 |--⑨-|
46
口①①口 |①-②③|
口口口口 |④⑤⑥-|
口③②口
口④⑤⑥

口口⑩口
口⑧口⑨
⑦口口口 |⑦-⑧-|
口口口口 |⑨-⑩-|
47
①口口① |①-②③|
口口口口 |④⑤⑥-|
口③②口
口④⑤⑥

⑨口口⑨
⑦口口⑧
⑦口口⑧ |⑦----⑧--|
口口口口 |--⑨-|
48
口①①口 |①-②③|
口口口口 |④⑤⑥-|
口③②口
口④⑤⑥

⑨⑩口⑪
口口口⑧
⑦口口口 |⑦-⑧-|
口口口口 |⑨⑩-⑪|
49
口口①口 |①--②|
口口口口 |--③-|
口②③口
口③②口

口口⑥⑥
口口口④
⑤口口④ |-④--|
⑤口口口 |⑤-⑥-|
50
①⑤口⑦ |①-②③|
⑤⑥⑥⑤ |④--⑤|
口②③口 |--⑥-|
口④⑥口 |--⑦-|
51
口⑧口⑧ |--①②|
口口⑧口 |③-④⑤|
④①②⑤ |⑥⑦--|
⑥③口⑦ |⑧---|
52
①口口口 |①-②③|
口口口⑤ |④--⑤|
口③②⑤
⑤口④口

⑦口口⑥
⑥口口口
口口口口 |--⑥-|
口⑥口口 |--⑦-|
53
⑧口⑧口 |--①②|
口⑧口口 |③-④⑤|
⑤②①④ |⑥⑦--|
⑦口③⑥ |⑧---|
54
口⑤口① |①-②③|
⑤口口⑤ |④--⑤|
口②③口
口④口口

口口口⑦
口⑥⑥口
口口口口 |--⑥-|
口口⑥口 |--⑦-|
55
口⑧口⑧ |--①②|
口口⑧口 |③-④⑤|
④①②⑤ |⑥⑦--|
⑥③口⑦ |⑧---|
56
①口口口 |①-②③|
口口口⑤ |④--⑤|
口③②⑤
⑤口④口

⑦口口⑥
⑥口口口
口口口口 |--⑥-|
口⑥口口 |--⑦-|
57
口口口口 |--①②|
⑧⑧⑧⑧ |③-④⑤|
⑤②①④ |⑥⑦--|
⑦口③⑥ |⑧---|
58
①⑥口① |①---|
⑤口口口 |②---|
②④口② |③-④-|
口口③口 |⑤-⑥-|
59
口口①口 |①---|
口③口口 |②---|
④口②口 |③---|
口口口口 |④---|
60
①口①② |①-②-|
③口口口 |③④⑤-|
口④口口
口⑤口口

口⑥⑩口
口口口⑦
口口⑧口 |⑥-⑦⑧|
口口⑨口 |⑨-⑩-|
61
口⑫⑫① |①②③④|
⑥②⑦口 |⑤⑥⑦⑧|
⑩⑧⑨③ |⑨⑩⑪-|
口④⑪⑤ |⑫---|
62
③口口① |①-②-|
口口③④ |③--④|
⑥⑦⑧⑨ |--⑤-|
④②⑤口 |⑥⑦⑧⑨|
63
口⑤口④ |--①②|
③②①口 |③--④|
⑨⑧⑦⑥ |--⑤-|
④口口口 |⑥⑦⑧⑨|
64
③口口口 |--①-|
①⑦⑧口 |②--③|
⑤⑥口④ |--④-|
口②②③ |⑤⑥⑦⑧|
65
口④①④ |①-②-|
②口口② |③--④|
口口口口
口口③口

口口口口
⑨⑧口口
口⑦⑥口 |--⑤-|
口⑤口口 |⑥⑦⑧⑨|
66
①③③口 |①-②-|
口口口口 |③--④|
口口口②
④口口④

口口口口
口口口口
⑥⑦⑧⑨ |--⑤-|
口口⑤口 |⑥⑦⑧⑨|
67
口⑥口⑤ |①-②③|
④③②口 |④--⑤|
⑩⑨⑧⑦ |--⑥-|
⑤①口口 |⑦⑧⑨⑩|
68
口③口② |--①-|
①⑦⑧② |②--③|
⑤⑥口④ |--④-|
口口③口 |⑤⑥⑦⑧|
69
口④①④ |①-②-|
②口口② |③--④|
口口口口
③口③口

口口口口
⑨⑧口口
口⑦⑥口 |--⑤-|
口⑤口口 |⑥⑦⑧⑨|
70
①④口④ |①-②-|
口口口④ |③--④|
口口口②
③口③③

口口⑤口
口口口口
⑥⑦⑧⑨ |--⑤-|
口口口口 |⑥⑦⑧⑨|
71
⑥口⑤⑤ |①-②③|
④③②⑤ |④--⑤|
⑩⑨⑧⑦ |--⑥-|
⑤①口口 |⑦⑧⑨⑩|
72
④④口③ |①-②-|
②⑧⑨③ |③--④|
⑥⑦口⑤ |--⑤-|
口①④口 |⑥⑦⑧⑨|
73
口④①④ |①-②-|
②口口② |③--④|
口口口口
③口③口

口口口口
⑨⑧口口
口⑦⑥口 |--⑤-|
口⑤口⑤ |⑥⑦⑧⑨|
74
①⑤口③ |①-②-|
口口②③ |③--④|
⑥⑦⑧⑨ |--⑤-|
④口④④ |⑥⑦⑧⑨|
75
⑥口⑤⑤ |①-②③|
④③②⑤ |④--⑤|
⑩⑨⑧⑦ |--⑥-|
⑤①口口 |⑦⑧⑨⑩|
76
④④口③ |①-②-|
②口②③ |③--④|
口口口口
口①④口

口口口口
口⑧⑨口
⑥⑦口⑤ |--⑤-|
口口口口 |⑥⑦⑧⑨|
77
⑤⑤①④ |①-②-|
②口口② |③--④|
⑥口④⑦ |-⑤--|
⑧③③⑨ |⑥⑦⑧⑨|
78
⑦口口⑧ |--①②|
⑦⑤⑥⑧ |③④⑤⑥|
口③④口 |⑦---|
口①②口 |⑧---|
79
口⑨⑩口 |①-②③|
⑧⑥⑦⑪ |④⑤⑥⑦|
口④⑤口 |⑧-⑨-|
①②③① |⑩-⑪-|
80
⑧口口⑨ |①-②③|
⑧⑥⑦⑨ |④⑤⑥⑦|
口④⑤口 |⑧---|
①②③① |⑨---|
81
⑩⑨口⑩ |①-②③|
⑧⑥⑦口 |④⑤⑥⑦|
口④⑤口 |⑧-⑨-|
①②③① |⑩---|

accuracy: 100%
最終更新:2022年04月10日 17:20