アットウィキロゴ
Catch Me
DJ Yoshitaka feat. Eri

BASIC

Level: 2
BPM: 115
Notes: 138

1
口口口口 |----|
口口口口 |----|
口口口口 |----|
口口口口 |----|
2
口②口口 |①---|
口③①① |②---|
口④口口 |③---|
口口口口 |④---|
3
口②口口 |①---|
口③①① |②---|
口④口口 |③---|
口口口口 |④---|
4
口口②① |①---|
口口口口 |----|
口口口口 |②---|
口口口口 |----|
5
②①口口 |①---|
口口口口 |----|
口口口口 |②---|
口口口口 |----|
6
口②口口 |①---|
口③①① |②---|
口④口口 |③---|
口口口口 |④---|
7
口②口口 |①---|
口③①① |②---|
口④口口 |③---|
口口口口 |④---|
8
口口②① |①---|
口口口口 |----|
口口口口 |②---|
口口口口 |----|
9
②①口口 |①---|
口口口口 |----|
口口口口 |②---|
口口口口 |----|
10
口口口口 |①---|
口①①口 |----|
口口口口 |②---|
口②口口 |----|
11
口口口口 |①---|
口口口口 |----|
口②口口 |②---|
口口①口 |----|
12
口口口口 |①---|
口口口口 |----|
口口①口 |②---|
口②口口 |----|
13
口口口口 |①---|
口②②口 |----|
口口口口 |②---|
口口①口 |----|
14
口①①口 |①---|
口口口口 |----|
口口口口 |②---|
口②口口 |----|
15
口口口口 |①---|
口口口口 |----|
口②口口 |②---|
口口①口 |----|
16
口口口口 |①---|
口口口口 |----|
口口①口 |②---|
口②口口 |----|
17
口口口口 |①---|
口②②口 |----|
口口口口 |②---|
口口①口 |----|
18
口口②① |①---|
口口口口 |----|
口口口口 |②---|
口口口口 |----|
19
②①口口 |①---|
口口口口 |----|
口口口口 |②---|
口口口口 |----|
20
口口口口 |①---|
①②口口 |----|
口口口口 |②---|
口口口口 |----|
21
口口口口 |①---|
口口①② |----|
口口口口 |②---|
口口口口 |----|
22
口口②① |①---|
口口口口 |----|
口口口口 |②---|
口口口口 |----|
23
②①口口 |①---|
口口口口 |----|
口口口口 |②---|
口口口口 |----|
24
口口口口 |①---|
口①②口 |----|
口口口口 |②---|
口口口口 |----|
25
口口口口 |①---|
口口口口 |----|
口①②口 |②---|
口口口口 |----|
26
口口口口 |①---|
①②口口 |----|
口口口口 |②---|
口口口口 |----|
27
口口口口 |①---|
口口①② |----|
口口口口 |②---|
口口口口 |----|
28
口口口口 |①---|
口口口口 |----|
口口②① |②---|
口口口口 |----|
29
口口口口 |①---|
口口口口 |----|
②①口口 |②---|
口口口口 |----|
30
口口口口 |①---|
①②口口 |----|
口口口口 |②---|
口口口口 |----|
31
口口口口 |①---|
口口①② |----|
口口口口 |②---|
口口口口 |----|
32
口口口口 |①---|
口口口口 |----|
口口②① |②---|
口口口口 |----|
33
口口口口 |①---|
口口口口 |----|
②①口口 |②---|
口口口口 |----|
34
口②口口 |①---|
口③①① |②---|
口④口口 |③---|
口口口口 |④---|
35
口②口口 |①---|
口③①① |②---|
口④口口 |③---|
口口口口 |④---|
36
口口②① |①---|
口口口口 |----|
口口口口 |②---|
口口口口 |----|
37
②①口口 |①---|
口口口口 |----|
口口口口 |②---|
口口口口 |----|
38
口②口口 |①---|
口③①① |②---|
口④口口 |③---|
口口口口 |④---|
39
口②口口 |①---|
口③①① |②---|
口④口口 |③---|
口口口口 |④---|
40
口口②① |①---|
口口口口 |----|
口口口口 |②---|
口口口口 |----|
41
②①口口 |①---|
口口口口 |----|
口口口口 |②---|
口口口口 |----|
42
口口口口 |①---|
②口①① |----|
口口口口 |②---|
口口口口 |----|
43
口口口口 |①---|
口口口口 |----|
②口①① |②---|
口口口口 |----|
44
口口口口 |①---|
②口①① |----|
口口口口 |②---|
口口口口 |----|
45
口口口口 |①---|
口②②口 |----|
口口①① |②---|
口口口口 |----|
46
口口口口 |①---|
口口口口 |----|
口①口口
口口口口

口口口口
口口口口
口②口口 |②---|
口口口口 |----|
47
口口口口 |①---|
口口口口 |----|
口口①口
口口口口

口口口口
口口口口
口口②口 |②---|
口口口口 |----|
48
口口口口 |①---|
口①口口 |----|
口口口口
口口口口

口口口口
口②口口
口口口口 |②---|
口口口口 |----|
49
口口口口 |①---|
口口①口 |----|
口口口口
口口口口

口口口口
口口②口
口口口口 |②---|
口口口口 |----|
50
口口口口 |①---|
②口①① |----|
口口口口 |②---|
口口口口 |----|
51
口口口口 |①---|
口口口口 |----|
②口①① |②---|
口口口口 |----|
52
口口口口 |①---|
②口①① |----|
口口口口 |②---|
口口口口 |----|

accuracy: 99.5%
最終更新:2024年09月08日 16:09