アットウィキロゴ
Catch Me
DJ Yoshitaka feat. Eri

ADVANCED

Level: 6
BPM: 115
Notes: 418

1
口口口口 |----|
口口口口 |----|
口口口口 |----|
口口口口 |----|
2
口口口口 |--①-|
①②②① |②---|
①②②①
口口口口

③口口⑥
口口口口
口⑦⑦口 |③-④⑤|
口⑤④口 |-⑥-⑦|
3
⑤①①口 |--①-|
④④口口 |----|
③口口口 |②-③-|
②②口口 |④-⑤-|
4
③口口② |①---|
口口口口 |--②③|
口口口口
口①①口

口口口口
口口口口
口口口口 |----|
口④口口 |---④|
5
④⑦口⑥ |①-②-|
口口口③ |③-④-|
②口口口 |--⑤-|
口⑤⑤① |⑥--⑦----|
6
口口口口 |--①-|
①②②① |②---|
①②②①
口口口口

③口口⑥
口口口口
口⑦⑦口 |③-④⑤|
口⑤④口 |-⑥-⑦|
7
⑤①①口 |--①-|
④④口口 |----|
③口口口 |②-③-|
②②口口 |④-⑤-|
8
③口口② |①---|
口口口口 |--②③|
口口口口
口①①口

口口口口
口口口口
口口口口 |----|
口⑤④口 |--④⑤|
9
①口口① |--①-|
口口口口 |----|
口②②口 |②---|
口③③口 |③---|
10
①口口① |①---|
④口口口 |②③-④|
口口口口
②③口口

⑦⑥口口
口口口口
⑤口口口 |--⑤-|
口口口口 |⑥⑦--|
11
口口⑤⑥ |----|
口口口③ |①②-③|
口口口④ |--④-|
口口②① |⑤⑥--|
12
⑥⑤口口 |----|
③口口口 |①②-③|
④口口口 |--④-|
①②口口 |⑤⑥--|
13
口口口① |--①-|
口口②口 |②-③-|
口口口③
口口口口

口口⑥⑥
口口口口
口口口口 |④-⑤-|
口口④⑤ |--⑥-|
14
⑥⑤⑤口 |----|
③口口口 |①②-③|
④口口口 |--④-|
②①①口 |⑤⑥--|
15
口⑤⑤⑥ |----|
口口口③ |①②-③|
口口口④ |--④-|
口①①② |⑤⑥--|
16
⑥⑤⑤口 |----|
③口口口 |①②-③|
④口口口 |--④-|
②①①口 |⑤⑥--|
17
口口④口 |----|
①⑤口② |--①-|
②口⑥① |②-③-|
口③③口 |④⑤⑥-|
18
①口口① |----|
口②③口 |①-②③|
④⑥口④ |-④-⑤|
⑤口口⑤ |--⑥-|
19
口④③② |①--②|
口口口口 |-③-④|
口口①口
口口口口

口口口口
口口口口
口口⑤口 |--⑤-|
口口口口 |----|
20
①口口① |----|
口②③口 |①-②③|
④⑥⑥④ |-④-⑤|
⑤口口⑤ |--⑥-|
21
口①口口 |①---|
②口口口 |②---|
口口口②
口口①口

口口口口
口⑤⑤③
③口口口 |③--④|
口④④口 |--⑤-|
22
②口口② |--①-|
口③④口 |②-③④|
口①①口
口口口口

⑦口口⑦
口口口口
⑤口口⑤ |-⑤-⑥|
⑥口口⑥ |--⑦-|
23
口口口口 |①②-③|
口①②口 |-④-⑤|
③⑤⑤③
④口口④

⑦⑧口口
口⑥⑥口
口口口口 |--⑥-|
口口口口 |--⑦⑧|
24
口口①② |①②-③|
口③口口 |-④⑤⑥|
⑥⑤④⑦ |--⑦-|
口口口口 |----|
25
①②③④ |①②③④|
口口口口 |-⑤⑥⑦|
⑦⑥⑤⑧ |---⑧----|
口口口口 |----|
26
①②③口 |----|
口口口口 |①---|
口口口口 |②---|
①②③口 |③---|
27
口口口② |①--②|
口口口口 |--③-|
口①③口
口口口口

④口口口
口口⑤口
口口⑥口 |④--⑤|
口口口口 |--⑥-|
28
口口口口 |①---|
口口口口 |----|
口口口口 |----|
口口①口 |----|
29
①①口② |①②-③|
口口③口 |-④-⑤|
口④口口
⑤口口口

⑦⑦口口
口口⑧⑧
口口口口 |--⑥-|
口口口⑥ |⑦⑧--|
30
口③②① |----|
口口口口 |①---|
口口口口 |②---|
口③②① |③---|
31
②口口口 |①--②|
口口口口 |--③-|
口③①口
口口口口

口口口④
口⑤口口
口⑥口口 |④--⑤|
口口口口 |--⑥-|
32
②口口③ |①---|
④口口⑤ |----|
口口口口 |----|
口①口口 |②③④⑤|
33
口③口口 |--①②|
口口③口 |③---|
口口口口
口①②口

口口口口
口④口口
口⑤④口 |④---|
口口⑤口 |⑤---|
34
口口口口 |--①-|
①②②① |②---|
①②②①
口口口口

③口口⑥
口口口口
口⑦⑦口 |③-④⑤|
口⑤④口 |-⑥-⑦|
35
⑤①①口 |--①-|
④④口口 |----|
③口口口 |②-③-|
②②口口 |④-⑤-|
36
③口口② |①---|
口口口口 |--②③|
口口口口
口①①口

口口口口
口口口口
口口口口 |----|
口④口口 |---④|
37
④⑦口⑥ |①-②-|
口口口③ |③-④-|
②口口口 |--⑤-|
口⑤⑤① |⑥⑦--|
38
口口口口 |--①-|
①②②① |②---|
①②②①
口口口口

③口口⑥
口口口口
口⑦⑦口 |③-④⑤|
口⑤④口 |-⑥-⑦|
39
⑤①①口 |--①-|
④④口口 |----|
③口口口 |②-③-|
②②口口 |④-⑤-|
40
③口口② |①---|
口口口口 |--②③|
口口口口
口①①口

口口口口
口口口口
口口口口 |----|
口⑤④口 |--④⑤|
41
口口口口 |--①-|
①②口① |②-③-|
口口④③ |④-⑤-|
⑤⑥口⑦ |⑥-⑦-|
42
①⑥口⑤ |①--②|
①口③② |③-④-|
①⑧口⑦ |⑤-⑥-|
口口口④ |⑦-⑧-|
43
口⑥口⑤ |①--②|
①口③② |③-④-|
①⑧口⑦ |⑤-⑥-|
①口口④ |⑦-⑧-|
44
①⑥口⑤ |①--②|
①口③② |③-④-|
①⑧口⑦ |⑤-⑥-|
口口口④ |⑦-⑧-|
45
口口口口 |①--②|
①口③② |③-④-|
①口口口
①口口④

口口口口
⑤⑥口⑦
⑤⑥口⑦ |⑤⑥-⑦|
口口口口 |----|
46
口口口口 |①---|
口⑤口口 |②---|
①④口② |③-④-|
口③口口 |⑤---|
47
口口口① |①-②-|
口口②口 |③--④|
口口口③ |----|
④口口口 |----|
48
口口口口 |①---|
口⑤口口 |②---|
①④口② |③-④-|
口③口口 |⑤---|
49
口口①口 |①-②-|
口口口② |③--④|
口口③口
④口口口

口⑤⑤口
口⑥⑥口
口口口口 |⑤⑥-⑦|
口⑦⑦口 |----|
50
口⑥口⑤ |①--②|
①口③② |③-④-|
①⑧口⑦ |⑤-⑥-|
①口口④ |⑦-⑧-|
51
①⑥口⑤ |①--②|
①口③② |③-④-|
①⑧口⑦ |⑤-⑥-|
口口口④ |⑦-⑧-|
52
口⑥口⑤ |①--②|
①口③② |③-④-|
①⑧口⑦ |⑤-⑥-|
①口口④ |⑦-⑧-|

accuracy: 99.5%
最終更新:2024年09月08日 16:09