アットウィキロゴ
Catch Me
DJ Yoshitaka feat. Eri

EXTREME

Level: 9.0
BPM: 115
Notes: 561

1
口口口口 |----|
口口口口 |----|
口口口口 |----|
口口口口 |----|
2
口口①口 |--①-|
①口②口 |②---|
②口口口
口口口口

③口口口
口⑦⑦口
口口⑤④ |③-④⑤|
⑥口口口 |-⑥-⑦|
3
①口口① |--①-|
口口口口 |----|
口④口② |②-③-|
⑤口③口 |④-⑤-|
4
①口口① |①---|
口④口口 |--②③|
口口③② |----|
口口口口 |---④|
5
口①口② |①-②-|
口口口③ |③-④-|
口口口④
口口口口

口⑥口⑦
口口口口
口口口口 |--⑤-|
口⑤口口 |⑥⑦--|
6
口③①口 |--①-|
①口②② |②--③|
②②口口
口口口口

④口口口
口⑧⑧口
口口⑥⑤ |④-⑤⑥|
⑦口口口 |-⑦-⑧|
7
①口口① |--①-|
口口口口 |---②|
②⑤④③ |③-④-|
⑥口④口 |⑤-⑥-|
8
①口口① |①-②③|
口⑦⑥口 |--④⑤|
口口③② |--⑥-|
④⑤口口 |---⑦|
9
口①口② |①-②③|
⑤口口③ |④-⑤⑥|
⑥口口④
口口口口

口⑩⑨口
口口口口
口⑧⑧口 |⑦-⑧-|
⑦口口口 |⑨⑩--|
10
②口口⑧ |①---|
①③⑦① |②③④⑤|
①口④① |--⑥-|
⑤口口⑥ |⑦⑧--|
11
②口口⑤ |①---|
口③口口 |②③④⑤|
口⑦④口 |--⑥-|
⑧①①⑥ |⑦⑧--|
12
①口口② |①---|
①口③口 |②③④⑤|
口④口口
口口口⑤

⑧口口口
口⑦口口
口口口口 |--⑥-|
⑥口口口 |⑦⑧--|
13
口③口① |①-②-|
④口②口 |③-④-|
口③口口
④口口口

口口口口
口口⑦⑦
⑦⑦⑥⑥ |⑤-⑥-|
口口⑤⑤ |--⑦-|
14
①⑦①⑦ |----|
口②⑥口 |①②③④|
口③口口 |--⑤-|
④口④⑤ |⑥⑦--|
15
②口口⑤ |①---|
口③④口 |②③④⑤|
②①①⑤
口口口口

口口口口
⑧口口口
口⑦口口 |--⑥-|
⑧口口⑥ |⑦⑧--|
16
⑦①⑦① |----|
口⑥②口 |①②③④|
口口③口 |--⑤-|
⑤④口④ |⑥⑦--|
17
④口口④ |①-②-|
口口③口 |③-④-|
口②口口
口口①口

口口口口
⑤口⑨⑤
⑥⑧口⑥ |⑤-⑥-|
口口⑦口 |⑦⑧⑨-|
18
②⑥⑥② |①---|
口④③口 |②-③④|
⑤口口⑦ |-⑤-⑥|
①口口① |--⑦-|
19
口口口口 |①--②|
②口口② |-③-④|
口③④口
口①①口

口⑤⑤口
口口口口
⑥⑦口口 |--⑤-|
⑥⑦口口 |⑥⑦--|
20
口口口口 |①---|
②口口② |②-③④|
口④③①
口口口①

⑥口口⑥
口口口口
口口口口 |-⑤-⑥|
⑤口⑦⑦ |--⑦-|
21
②口口② |①---|
口①口口 |②---|
口口①口
口口口口

口口口口
④④口口
口口⑥⑤ |③--④|
③③⑥⑤ |⑤⑥--|
22
②口口③ |①-②-|
口④⑤口 |③-④⑤|
①口口口
①口口口

口口口口
口口口口
⑥口口⑦ |-⑥-⑦|
口⑧⑧口 |--⑧-|
23
⑥①②⑥ |①②-③|
③⑧口④ |-④-⑤|
⑦⑤⑤口 |--⑥-|
口口口口 |--⑦⑧|
24
③口⑦⑦ |①②-③|
③口口② |-④⑤⑥|
口口①口 |--⑦-|
口⑥⑤④ |----|
25
口口口口 |①②③④|
①口③口 |-⑤⑥⑦|
口②口④
⑤⑥⑦口

口口口口
⑧口⑨⑩
⑧口⑨⑩ |--⑧-|
口口口口 |⑨⑩--|
26
①口口① |①---|
④④口口 |②---|
口③③口 |③---|
②②口口 |④---|
27
口①①口 |①--②|
⑤⑤⑥⑥ |--③-|
③口口④ |④--⑤|
②③④② |--⑥-|
28
口①①口 |①---|
口③口口 |②-③-|
口③口口
②口②口

口⑤口⑤
口口④口
口口④口 |--④-|
口口口口 |⑤---|
29
①口⑤口 |①②-③|
①④⑤② |-④-⑤|
口④口②
③口③口

⑧口口口
⑧口口⑦
口口口⑦ |--⑥-|
口⑥口⑥ |⑦⑧--|
30
口口口口 |----|
③③口口 |①---|
口②②口 |②---|
①①口口 |③---|
31
口①①口 |①--②|
⑤⑤⑥⑥ |--③-|
③口口④ |④--⑤|
②③④② |--⑥-|
32
口①①口 |①---|
口③口口 |②-③-|
口③口口
②口②口

口⑤口⑤
⑥口④口
口口④⑦ |--④-|
⑧口口口 |⑤⑥⑦⑧|
33
口口口口 |--①②|
口口口口 |③-④⑤|
④⑤口口
口③②①

口⑦⑦口
口口口口
口口⑥口 |⑥-⑦-|
口⑧⑧口 |⑧---|
34
口口①口 |--①-|
①口②② |②-③-|
②②口口
口口口③

④④口口
口⑧⑧口
⑦口⑥⑤ |④-⑤⑥|
⑦口口口 |-⑦-⑧|
35
①口口① |--①-|
口口口口 |②-③-|
口②③口
口口口口

口口口口
口⑥口口
⑦⑥口④ |④-⑤-|
⑦口⑤口 |⑥-⑦-|
36
①口口① |①---|
口②口口 |②-③④|
口口④③
口口口口

口口口口
口⑦⑤口
⑥口口口 |--⑤-|
口口口口 |⑥--⑦|
37
口①口② |①-②-|
口口口③ |③-④-|
口口口④
口口口口

口⑥口⑦
口口口口
口口口口 |--⑤-|
口⑤口口 |⑥⑦--|
38
口口①口 |--①-|
①口②② |②-③-|
②②口口
口口口③

④口口口
口⑧⑧口
⑦口⑥⑤ |④-⑤⑥|
⑦口口口 |-⑦-⑧|
39
①②③口 |--①②|
口口⑤④ |③-④⑤|
⑥⑦⑧⑨ |⑥-⑦-|
⑥⑦⑧⑨ |⑧-⑨-|
40
①口口① |①--②|
口口口口 |③-④⑤|
②③口口
口口⑤④

口口⑥口
口⑦口口
口口⑧口 |--⑥⑦|
口口⑩⑨ |⑧-⑨⑩|
41
②③④口 |①-②③|
②③④口 |④-⑤⑥|
口口⑥⑤
口①⑥⑤

口口口⑧
⑧口口⑨
⑨⑦口口 |⑦-⑧-|
口⑦口口 |⑨---|
42
口口口口 |①--②|
口①③口 |③-④-|
口①口②
④①口口

⑤⑥口⑩
⑦⑧口口
口口口⑨ |⑤⑥⑦⑧|
口口口口 |⑨-⑩-|
43
口口口口 |①--②|
口③①口 |③-④-|
②口①口
口口①④

⑩口⑤⑥
口口⑦⑧
⑨口口口 |⑤⑥⑦⑧|
口口口口 |⑨-⑩-|
44
口口口口 |①--②|
口①③口 |③-④-|
口①口②
④①口口

⑤⑥口⑩
⑦⑧口口
口口口⑨ |⑤⑥⑦⑧|
口口口口 |⑨-⑩-|
45
口口口口 |①--②|
口③①口 |③-④-|
②口①口
口口①④

⑦口口⑦
口口口口
口口⑥⑥ |⑤⑥-⑦|
⑤⑤口口 |----|
46
③④⑤⑤ |①-②-|
③④口口 |③④-⑤|
②口②口
口①口①

口口口口
口口口口
口口⑧⑥ |-⑥⑦⑧|
口⑨⑦口 |⑨---|
47
①②口口 |①②③④|
口③④口 |⑤⑥-⑦|
口口⑤⑥
⑦口口口

⑧口⑪⑨
口⑩口⑫
口口口口 |-⑧-⑨|
口口口口 |-⑩⑪⑫|
48
③④⑤⑤ |①-②-|
③④口口 |③④-⑤|
②口②口
口①口①

口口口口
口口口口
口口⑧⑥ |-⑥⑦⑧|
口⑨⑦口 |⑨---|
49
口口②① |①②③④|
口④③口 |⑤⑥-⑦|
⑥⑤口口
口口口⑦

⑩口口⑩
口口口口
口口⑨⑨ |⑧⑨-⑩|
⑧⑧口口 |----|
50
口口口口 |①--②|
口①③口 |③-④-|
口①口②
④①口口

⑤⑥口⑩
⑦⑧口口
口口口⑨ |⑤⑥⑦⑧|
口口口口 |⑨-⑩-|
51
口口口口 |①--②|
口③①口 |③-④-|
②口①口
口口①④

⑩口⑤⑥
口口⑦⑧
⑨口口口 |⑤⑥⑦⑧|
口口口口 |⑨-⑩-|
52
口口口口 |①--②|
口①③口 |③-④-|
口①口②
④①口口

⑤⑥口⑩
⑦⑧口口
口口口⑨ |⑤⑥⑦⑧|
口口口口 |⑨-⑩-|

accuracy: 99.5%
最終更新:2024年09月08日 16:09