アットウィキロゴ
ロストワンの号哭 [ 2 ]
Neru

EXTREME

Level: 9.5
BPM: 162
Notes(hold): 984(29)

1
⑧①②⑦ |①-②-|
⑫⑤⑥⑪ |③④⑤⑥|
⑩③④⑨ |⑦-⑧-|
②⑦⑧① |⑨⑩⑪⑫|
2
⑦①②口 |①-②-|
口⑤⑥口 |③④⑤⑥|
口③④⑦ |⑦---|
②口口① |⑧---|

口口口口
口口口口
口口口口
口⑧口⑧
3
⑥①⑥① |①-②-|
口⑧⑨⑩ |③④⑤-|
⑤④③口 |⑥-⑦-|
口⑦②口 |⑧⑨⑩-|
4
⑥①⑥① |①-②-|
口⑧⑨⑩ |③④⑤-|
⑤④③口 |⑥-⑦-|
口⑦②口 |⑧⑨⑩-|
5
⑥①⑥① |①-②-|
口⑧⑨⑩ |③④⑤-|
⑤④③口 |⑥-⑦-|
口⑦②口 |⑧⑨⑩-|
6
口①口① |①-②-|
口口口口 |③④⑤-|
⑤④③口 |⑥-⑦-|
口口②口 |⑧-⑨-|

⑧口⑥口
⑥口⑨口
口口口⑧
⑨⑦口⑦
7
⑥①⑥① |①-②-|
口⑧⑨⑩ |③④⑤-|
⑤④③口 |⑥-⑦-|
口⑦②口 |⑧⑨⑩-|
8
⑥①⑥① |①-②-|
口⑧⑨⑩ |③④⑤-|
⑤④③口 |⑥-⑦-|
口⑦②口 |⑧⑨⑩-|
9
⑤①⑥⑩ |①-②-|
④口口⑨ |③④⑤-|
③②⑦⑧ |⑥-⑦-|
口⑥①口 |⑧⑨⑩-|
10
⑤①⑥⑩ |①-②-|
④⑦口⑨ |③④⑤-|
③②口⑧ |⑥-⑦-|
口⑥①口 |⑧⑨⑩⑪|

口口口口
口口口口
口⑪口口
口口口口
11
③②口口 |①-②③|
口口口口 |-④⑤-|
口口①口 |--⑥-|
口口④⑤ |⑦-⑧-|

口口口口
口⑥口口
口口⑦口
口⑧口口
12
③>―④ |①--②|
①口①口 |--③-|
口口口口 |④---|
②口②口 |⑤-⑥⑦|

口口口5
口⑦⑥口
口⑤口口
口口口口
13
③②口口 |①-②③|
①口⑥口 |-④⑤-|
口⑦④⑤ |--⑥-|
口口⑧口 |⑦-⑧-|
14
⑤―<④ |①-②③|
⑤①口① |--④-|
口口口口 |⑤---|
③②口口 |⑥-⑦⑧|

6口口口
口⑦⑧口
口口⑥口
口口口口
15
口口②③ |①-②③|
口⑥口① |-④⑤-|
⑤④⑦口 |--⑥-|
口⑧口口 |⑦-⑧-|
16
③>―④ |①--②|
①口①④ |--③-|
口口口口 |④---|
②口②口 |⑤-⑥⑦|

口口口5
口⑦⑥口
口⑤口口
口口口口
17
③②口口 |①-②③|
①口⑥口 |-④⑤-|
口⑦④⑤ |--⑥-|
口口⑧口 |⑦-⑧-|
18
口口口口 |①-②③|
口①⑧① |-④⑤-|
⑦口④⑤ |--⑥-|
③②⑥口 |⑦-⑧-|
19
①①⑥② |①-②-|
|⑩⑨⑧ |③④⑤-|
|⑤④③ |⑥-⑦-|
∧口⑦口 |⑧⑨⑩-|
20
8口⑥① |①-②-|
口⑩⑨⑧ |③④⑤-|
口⑤④③ |⑥-⑦-|
口口⑦② |⑧⑨⑩-|
21
口⑥口⑦ |①-②-|
②⑧⑨⑩ |③④⑤-|
⑤④③口 |⑥-⑦-|
口①⑥① |⑧⑨⑩-|
22
口口②口 |①-②-|
⑧⑥口⑦ |③④⑤-|
⑤④③⑧ |⑥--⑦|
⑦①⑥① |--⑧-|
23
②⑥①① |①-②-|
⑧⑨⑩| |③④⑤-|
③④⑤| |⑥-⑦-|
口⑦口∧ |⑧⑨⑩-|
24
①⑥口8 |①-②-|
⑧⑨⑩口 |③④⑤-|
③④⑤口 |⑥-⑦-|
②⑦口口 |⑧⑨⑩-|
25
⑦口⑥口 |①-②-|
⑩⑨⑧② |③④⑤-|
口③④⑤ |⑥-⑦-|
①⑥①口 |⑧⑨⑩-|
26
口②口口 |①-②-|
口口口口 |③④⑤-|
口③④⑤ |⑥-⑦-|
①口①口 |⑧-⑨⑩|

口口口⑥
口⑩⑨口
⑦口口口
⑧⑥⑧⑦
27
③②口口 |①-②③|
①口⑥口 |-④⑤-|
口⑦④⑤ |--⑥-|
口口⑧口 |⑦-⑧-|
28
④―<③ |①--②|
④①口① |--③-|
口口口③ |④---|
口②口② |⑤-⑥⑦|

5口口口
口⑥⑦口
口口⑤口
口口口口
29
口口②③ |①-②③|
口⑥口① |-④⑤-|
⑤④⑦口 |--⑥-|
口⑧口口 |⑦-⑧-|
30
③>―④ |①--②|
①口①④ |--③-|
③口口口 |④---|
②口②口 |⑤-⑥⑦|

口口口5
口⑦⑥口
口⑤口口
口口口口
31
③②口口 |①-②③|
①口⑤口 |--④-|
④⑥④口 |--⑤-|
口口⑦口 |⑥-⑦-|
32
④―<③ |①--②|
④①口① |--③-|
口口口③ |④---|
口②口② |⑤-⑥⑦|

5口口口
口⑥⑦口
口口⑤口
口口口口
33
口②口② |①--②|
口④口① |--③-|
口③⑤③ |--④-|
口⑥口口 |⑤-⑥-|
34
③>―④ |①--②|
①口①④ |--③-|
③口口口 |④-⑤-|
②口②口 |⑥-⑦⑧|

口口口6
口⑤口口
口⑦口⑥
口口⑧口
35
③⑤⑥口 |①-②③|
②口④口 |--④⑤|
口⑨口⑦ |⑥-⑦⑧|
口①⑩⑧ |--⑨⑩|
36
③⑤⑥口 |①-②③|
②口④口 |--④⑤|
口口口⑦ |⑥-⑦⑧|
口①口⑧ |--⑨⑩|

口口口口
口口口⑩
口口口口
口⑨口口
37
①⑥口口 |①-②③|
⑩口⑤口 |--④⑤|
④⑦②⑨ |⑥-⑦⑧|
口⑧③口 |--⑨⑩|
38
⑥口⑩① |①-②③|
口⑨⑤口 |--④⑤|
④⑦②口 |⑥-⑦⑧|
口⑧③口 |--⑨⑩|
39
口①⑩⑧ |①-②③|
口⑨口⑦ |--④⑤|
②口④口 |⑥-⑦⑧|
③⑤⑥口 |--⑨⑩|
40
口①口⑧ |①-②③|
口⑩⑨⑦ |--④⑤|
②口④口 |⑥-⑦⑧|
③⑤⑥口 |--⑨⑩|
41
口口口口 |①--②|
①口口口 |--③-|
口②口③ |--④-|
口>―③ |--⑤⑥|

口口④口
口⑤⑥口
口口口口
口口口4
42
口口口口 |①--②|
口口口① |--③-|
③口②口 |--④-|
③―<口 |--⑤⑥|

口④口口
口口⑥口
口⑤口口
4口口口
43
①口口① |①-②③|
⑤口口③ |-④⑤-|
口口口口 |⑥-⑦-|
口④②口 |⑧-⑨-|

⑨口⑧⑨
口⑦口口
口⑧⑥⑦
口口口口
44
口①口口 |①--②|
③>―④ |--③-|
③口口④ |④---|
口②②① |⑤-⑥⑦|

口口⑤口
口⑦口5
口口⑥口
口口口口
45
①口口① |①-②③|
③口口⑤ |-④⑤-|
口口口口 |⑥-⑦-|
口②④口 |⑧-⑨-|

⑨⑧口⑨
口口⑦口
⑦⑥⑧口
口口口口
46
口口①口 |①--②|
④―<③ |--③-|
④口口③ |④---|
①②②口 |⑤-⑥⑦|

口⑤口口
5口⑦口
口⑥口口
口口口口
47
①口口① |①-②③|
⑤口口③ |-④⑤-|
口口口口 |⑥-⑦-|
口④②口 |⑧-⑨-|

⑨⑦⑧⑨
口⑧口口
口口⑥⑦
口口口口
48
口口口口 |①-②③|
④口③口 |--④-|
④口口口 |⑤---|
①口②① |⑥-⑦⑧|

口口口口
口>―⑤
口口⑤口
口口口口

口⑥口口
口口⑧6
口口口⑦
口口口口
49
∨⑤口① |①-②③|
⑤∧口④ |--④-|
②口口口 |⑤-⑥-|
口③③口 |--⑦⑧|

口6口口
6⑧口口
⑦口口口
口口口口
50
①⑤⑤∨ |①-②③|
④口∧⑤ |--④-|
口口⑤② |⑤-⑥-|
口③⑤③ |--⑦⑧|

口口6口
口口⑧6
口⑦口口
口口口口
51
①口口① |①-②③|
③口口⑤ |-④⑤-|
口口口口 |⑥-⑦-|
口②④口 |⑧-⑨-|

⑨口⑧⑨
口⑦口口
口⑧⑥⑦
口口口口
52
口①口口 |①--②|
③>―④ |--③-|
③口口④ |④---|
口②②① |⑤-⑥⑦|

口口⑤口
口⑦口5
口口⑥口
口口口口
53
①口口① |①-②③|
③口口⑤ |-④⑤-|
口口口口 |⑥-⑦-|
口②④口 |⑧-⑨-|

⑨⑧口⑨
口口⑦口
⑦⑥⑧口
口口口口
54
口口①口 |①--②|
④―<③ |--③-|
④口口③ |④---|
①②②口 |⑤-⑥⑦|

口⑤口口
5口⑦口
口⑥口口
口口口口
55
①口口① |①-②③|
⑤口口③ |-④⑤-|
口口口口 |⑥-⑦-|
口④②口 |⑧-⑨-|

⑨⑦⑧⑨
口⑧口口
口口⑥⑦
口口口口
56
口口口口 |①-②③|
④口③口 |--④-|
④口口口 |⑤---|
①口②① |⑥-⑦⑧|

口口口口
口>―⑤
口口⑤口
口口口口

口⑥口口
口口⑧6
口口口⑦
口口口口   
57
∨⑤口① |①-②③|
⑤∧口④ |--④-|
②口口口 |⑤-⑥-|
③口③口 |--⑦⑧|

口6口口
6⑧口口
⑦口口口
口口口口
58
①⑤⑤∨ |①-②③|
④口∧⑤ |--④-|
口口⑤② |⑤-⑥-|
口③⑤③ |--⑦-|

口口6口
口口口6
口⑦口口
口口口口
59
①⑤⑤① |①-②-|
口口口口 |----|
口③口口 |--③-|
②④④② |④-⑤-|
60
②口口② |----|
口口口口 |--①-|
口①④口 |②-③-|
③⑤口③ |④-⑤-|
61
④①②④ |①-②-|
口口口口 |----|
②③口① |--③-|
⑤口口⑤ |④-⑤-|
62
③口②④ |----|
口口口口 |--①-|
口口口① |②--③|
③口②④ |--④-|
63
口口口口 |①-②③|
③①④⑧ |--④⑤|
②⑤口⑦ |⑥-⑦⑧|
口口⑥口 |--⑨⑩|

口口口口
口⑨口口
口口⑩口
口口口口
64
口口口口 |①-②③|
③⑨④⑧ |--④⑤|
②⑤⑩⑦ |⑥-⑦⑧|
口①⑥口 |--⑨⑩|
65
口口口口 |①-②③|
③⑨④⑧ |--④⑤|
②⑤⑩⑦ |⑥-⑦⑧|
口①⑥口 |--⑨⑩|
66
②④⑤③ |①-②-|
⑧⑥⑦口 |③-④-|
口口口口 |⑤-⑥-|
口①口口 |⑦-⑧-|
67
①④口口 |①-②③|
口口口口 |④⑤⑥-|
口⑥③① |⑦-⑧-|
口⑤②口 |⑨-⑩-|

口口⑦⑨
⑧口口口
口口口⑨
⑩口口口
68
①④⑥⑦ |①-②③|
⑧⑤①⑤ |④-⑤-|
口口③⑨ |⑥---|
⑩⑥②口 |⑦⑧⑨⑩|
69
①④口口 |①-②③|
口⑥③口 |④⑤⑥-|
口⑤②口 |⑦-⑧-|
口口口口 |⑨-⑩-|

口口⑦⑨
⑨口口口
⑩口口口
口⑧⑩口
70
①④⑥口 |①-②③|
⑥③∧① |④-⑤-|
口②⑤⑤ |⑥---|
口⑥口① |⑦-⑧⑨|

口口7⑦
口⑨口口
口⑧口口
口口口口
71
①④⑦⑨ |①-②③|
⑥⑨③口 |④⑤⑥-|
⑤口②口 |⑦-⑧-|
⑧⑧⑩⑩ |⑨-⑩-|
72
①④⑥口 |①-②③|
③口∧① |④-⑤-|
②口口⑤ |⑥---|
口⑤口口 |⑦-⑧⑨|

口口7⑦
口⑨口口
口⑧口口
口口口口
73
①③⑤口 |①--②|
④口∧④ |③-④-|
口口口⑤ |⑤---|
口②②口 |⑥-⑦⑧|

口口6⑥
口⑧口口
口⑦口口
口口口口
74
①③⑤口 |①--②|
④口∧④ |③-④-|
口口口⑤ |⑤---|
口②②口 |⑥---|

⑥口6⑥
口口口口
口⑥⑥口
口口口口
75
⑨口口口 |①②③④|
③①②④ |--⑤⑥|
口口口⑨ |⑦⑧--|
⑧⑥⑤⑦ |⑨---|
76
⑥①⑥① |①-②-|
口⑧⑨⑩ |③④⑤-|
⑤④③口 |⑥-⑦-|
口⑦②口 |⑧⑨⑩-|
77
⑥①⑥① |①-②-|
口⑧⑨⑩ |③④⑤-|
⑤④③口 |⑥-⑦-|
口⑦②口 |⑧⑨⑩-|
78
⑥①⑥① |①-②-|
口⑧⑨⑩ |③④⑤-|
⑤④③口 |⑥-⑦-|
口⑦②口 |⑧⑨⑩-|
79
⑧①⑥① |①-②-|
⑥口⑨口 |③④⑤-|
⑤④③⑧ |⑥-⑦-|
⑨⑦②⑦ |⑧-⑨-|
80
⑥①⑥① |①-②-|
口⑧⑨⑩ |③④⑤-|
⑤④③口 |⑥-⑦-|
口⑦②口 |⑧⑨⑩-|
81
⑥①⑥① |①-②-|
口⑧⑨⑩ |③④⑤-|
⑤④③口 |⑥-⑦-|
口⑦②口 |⑧⑨⑩-|
82
⑤①⑥⑩ |①-②-|
④口口⑨ |③④⑤-|
③②⑦⑧ |⑥-⑦-|
口⑥①口 |⑧⑨⑩-|
83
⑤①口⑩ |①-②-|
④⑦⑥⑨ |③④⑤-|
③②口⑧ |⑥-⑦-|
口⑥①口 |⑧⑨⑩-|
84
⑦②①⑧ |①-②-|
⑪⑥⑤⑫ |③④⑤⑥|
⑨④③⑩ |⑦-⑧-|
①⑧⑦② |⑨⑩⑪⑫|
85
口②①⑦ |①-②-|
口⑥⑤口 |③④⑤⑥|
⑦④③口 |⑦---|
①⑧⑧② |⑧---|
86
⑧①②⑦ |①-②-|
⑫⑤⑥⑪ |③④⑤⑥|
⑩③④⑨ |⑦-⑧-|
②⑦⑧① |⑨⑩⑪⑫|
87
⑦①②口 |①-②-|
口⑤⑥口 |③④⑤⑥|
口③④⑦ |⑦---|
②口口① |----|
最終更新:2022年04月07日 16:28