アットウィキロゴ
取り残された美術(Arranged:HiZuMi) [ 2 ]
幽閉サテライト feat. Senya

EXTREME

Level: 9.3
BPM: 160
Notes(hold): 744(66)

1
∨口口口 |①---|
|口口口 |--②-|
①②口口 |③---|
口口口口 |--④-|

口口∨口
口口|口
3口③口
④口口口
2
口口口① |①-②-|
口②口口 |③-④-|
④口1口 |⑤-⑥-|
口口③口 |⑦-⑧-|

⑥口口口
口口口⑤
口口⑦口
口⑧口口
3
口④②① |①-②-|
口③口口 |③-④-|
口⑦口口 |⑤-⑥-|
口⑧⑥⑤ |⑦-⑧-|
4
④⑤∨口 |①-②-|
口||① |③-④-|
②∧⑤口 |⑤---|
口口口③ |⑥---|

口6口口
口口口口
口口6口
口口口口
5
⑦⑥①① |①-②-|
⑤口④⑤ |③-④-|
⑤②口⑤ |⑤---|
①①③③ |⑥-⑦-|
6
口口口口 |①--②|
③③口口 |--③-|
口②②口 |④---|
④④①① |⑤-⑥-|

⑤口口口
口口口口
口口口口
口口口⑥
7
③③①① |①---|
口口口口 |②---|
②②④④ |③---|
②②④④ |④---|
8
②③①④ |①---|
③②④① |②---|
②口口④ |③---|
口②④口 |④---|
9
①⑥④⑤ |①-②-|
|⑦口③ |③-④-|
|⑧②口 |⑤--⑥⑦⑧|
∧⑨口① |⑨-⑩-|

口口口口
口口口口
口口口口
口口口⑩
10
1口口④ |①-②-|
口口②口 |③-④-|
口口口口 |⑤---|
③口①口 |⑥---|

口⑥⑤口
⑤口口⑥
⑥口口⑤
口⑤⑥口
11
口口口② |①-②-|
⑤③口⑩ |③-④-|
⑨⑧⑦⑥ |⑤--⑥⑦⑧|
①口口④ |⑨-⑩-|
12
⑦⑦⑤⑤ |①-②-|
口②④口 |③-④-|
⑥⑥⑧⑧ |⑤-⑥-|
①口口③ |⑦-⑧-|
13
口口口口 |①-②-|
③⑤②口 |③-④-|
口口口口 |⑤--⑥⑦⑧|
口④口① |⑨-⑩-|

⑩口口⑥
口口口⑦
口口口⑧
口口口⑨
14
口口口口 |①-②-|
口④③口 |③-④-|
口②口口 |⑤---|
口口①口 |⑥---|

口⑥⑤口
⑤口口⑥
⑥口口⑤
口⑤⑥口
15
③口④① |①-②-|
口口口口 |③-④-|
口②口口 |⑤-⑥-|
口口口口 |⑦-⑧-|

口口口⑦
口⑤口口
口口口口
⑧口口⑥
16
口②⑦⑪ |①②③④|
⑩⑥口③ |⑤⑥⑦⑧|
④⑧口① |⑨⑩⑪⑫|
口⑫⑤⑨ |⑬⑭⑮⑯|

⑭口口口
口口口口
口口⑬⑮
⑯口口口
17
④―<口 |①---|
口>―① |②---|
③―<口 |③---|
口>―② |④---|

口口口口
口口口2
4口口口
口口口3
18
1口口口 |①---|
口口③② |②---|
口口口口 |③---|
口口①④ |④---|
19
口①②口 |①---|
①③口口 |②-③-|
口④④口 |④---|
口∧∧口 |⑤---|

口口口口
口口口口
口55口
口口口口
20
口口口口 |①---|
②③口口 |②---|
口口口口 |③---|
④①口口 |④---|
21
口口①口 |①---|
口③口① |②-③-|
口口②口 |④---|
口口口口 |⑤---|

④口口④
∧口口∧
口口口口
口口口口

5口口5
口口口口
口口口口
口口口口
22
口口①口 |①---|
②②口口 |②---|
④口③口 |③---|
口④口口 |④---|
23
①口口口 |①---|
口口②口 |②-③-|
口③口口 |④---|
口口口① |⑤---|

口口口口
口口口口
口口口口
④④<

口口口口
口口口口
口口口口
口55口
24
④口口① |①---|
口④①口 |②-③-|
②口口③ |④---|
口⑤口⑥ |⑤-⑥-|
25
②口③① |①---|
⑤口①口 |②-③-|
⑥口口④ |④-⑤-|
⑦口④口 |⑥-⑦-|
26
③③②口 |--①-|
口口口② |②---|
④②口③ |③---|
口①④④ |④---|
27
口口①口 |①---|
口①②口 |②-③-|
∨③⑥⑦ |④-⑤-|
④口④⑤ |⑥-⑦-|

口口口口
口口口口
口口口口
6口口口
28
①口①③ |①---|
②②①口 |②---|
③口③口 |③---|
口口②口 |④---|

口口④口
口口口口
口口口口
④④口口
29
口①口口 |①---|
口②口口 |②-③-|
口口③① |④-⑤-|
口口①口 |⑥-⑦-|

口口口口
口口口口
⑦⑥口∨
⑤④口④

口口口口
口口口口
口口口口
口口口6
30
①口口① |①---|
口①②③ |②---|
口③口② |③---|
③②口口 |④---|

口口口口
口④口口
口口④口
口口④口
31
①①①口 |①---|
③口口② |②-③-|
∨口⑥⑦ |④-⑤-|
④口④⑤ |⑥-⑦-|

口口口口
口口口口
口口口口
6口口口
32
④④①① |①---|
口③②口 |②-③-|
①①口口 |④---|
口口④④ |⑤-⑥-|

口口口口
口口口口
口⑥⑤口
口口口口
33
②口①① |①---|
口④∨④ |②-③-|
④∧④口 |④---|
①①口③ |⑤-⑥-|

口口口口
口5口口
口口5口
口⑥口口
34
⑦⑤口② |①-②-|
⑤口②④ |③-④⑤|
⑥①口⑤ |--⑥-|
③口⑤⑧ |⑦-⑧-|
35
口口②② |①--②|
③③①口 |--③-|
口②口口 |--④-|
①①③口 |----|

口④∨∨
口口||
口口④④
口口口口
36
②口⑤⑧ |①-②-|
口口⑥⑤ |③-④⑤|
⑤⑦11 |--⑥-|
④⑤口③ |⑦-⑧-|
37
②②口口 |①--②|
口①③口 |--③-|
口口②口 |--④-|
③③①① |--⑤-|

口口④④
口口||
口④∧∧
口口口口

口口55
口口口口
口口口口
口口口口
38
口∨∨口 |①---|
①||① |----|
|②②| |②---|
∧口口∧ |--③-|

口口口口
2口口2
口33口
口口口口
39
⑦口⑤① |①-②-|
口②②⑧ |③-④-|
③⑥⑥口 |⑤-⑥-|
口④口口 |⑦-⑧-|
40
④口口② |①---|
口④②口 |②---|
①口口③ |③---|
①口口③ |④---|
41
∨∨③③ |①---|
||①① |②---|
||④④ |③---|
①①②② |④---|
42
口口口口 |①---|
口口口① |②---|
口口口| |③---|
11口∧ |④---|

∨口口口
|口口2
②口口口
口口口口

口口③口
口口|口
3口∧口
口口口口

口口4口
口∨口口
口|口口
口④口口
43
①―<② |①-②-|
①―<口 |③-④-|
口口口口 |⑤-⑥-|
口1①口 |⑦-⑧-|

3口口口
3口口口
口④口口
口口口③

口⑤口口
――⑤
――⑤
口口口口

口口口口
口⑦口7
⑥口⑧7
口口口口
44
①④②③ |①-②-|
⑤⑤⑥⑤ |③-④-|
口口口口 |⑤-⑥-|
③③①① |⑦-⑧-|

口口口口
口口口口
⑦⑦口口
口口⑧⑦
45
④②⑤③ |①-②-|
口⑤④⑦ |③-④-|
⑥⑦②① |⑤-⑥-|
①③⑥口 |⑦-⑧-|

口⑧口口
口口口口
口口口口
口口口⑧
46
口口③① |①-②-|
②④口口 |③-④-|
口口①③ |⑤---|
④②口口 |⑥---|

口口口口
―⑤口
口⑤―<
口口口口

⑥口口⑥
口口6口
口6口口
口口口口
47
⑤①②⑤ |①-②-|
③口⑦④ |③-④-|
②⑥口① |⑤---|
④口口③ |⑥-⑦-|
48
口口③口 |①--②|
口②口③ |--③-|
①⑥②口 |④---|
⑤①④④ |⑤-⑥-|
49
①口口口 |①---|
口口口口 |②---|
②口①① |③--④|
口口②② |--⑤-|

口③③③
④④④口
口⑤⑤⑤
口口口口
50
口口口口 |①---|
口∨口口 |②-③④|
口|口口 |⑤---|
口①口口 |⑥---|

口口④③
∨口口口
|口口口
⑤2口口

口口口口
口口口口
口口口口
6口口口
51
①―<② |①-②-|
①―<口 |③-④-|
口口口口 |⑤-⑥-|
口口①口 |⑦-⑧-|

3口口口
3口口口
口④口口
口口口③

口⑤口口
――⑤
――⑤
口口口口

口口口口
口⑦口7
⑥口⑧7
口口口口
52
①④②③ |①-②-|
⑤⑤⑥⑤ |③-④-|
口口口口 |⑤-⑥-|
③③①① |⑦-⑧-|

口口口口
口口口口
⑦⑦口口
口口⑧⑦
53
④②⑤③ |①-②-|
口⑤④⑦ |③-④-|
⑥⑦②① |⑤-⑥-|
①③⑥口 |⑦-⑧-|

口⑧口口
口口口口
口口口口
口口口⑧
54
口口③① |①-②-|
②④口口 |③-④-|
口口①③ |⑤---|
④②口口 |⑥---|

口口口口
―⑤口
口⑤―<
口口口口

⑥口口⑥
口口6口
口6口口
口口口口
55
⑤①②⑤ |①-②-|
③口⑧④ |③-④-|
②⑦口① |⑤-⑥-|
④口⑥③ |⑦-⑧-|
56
口口③口 |①--②|
口②口③ |--③-|
①⑥②口 |④---|
⑤①④④ |⑤-⑥-|
57
①①口口 |①---|
口口口口 |②---|
口口②② |③---|
口口②② |④---|

④④③③
④④口口
口口口口
口口口口
58
③③②② |①---|
④④口口 |②---|
口口②② |③---|
④④①① |④---|
59
④③口① |①-②-|
口⑥②| |③-④-|
⑤①⑥∧ |⑤--⑥|
口⑤口口 |⑦-⑧-|

口口⑧7
口口口⑧
口口口口
口口口口
60
口口口口 |①---|
③口②口 |②-③-|
口③口② |④---|
口口①① |--⑤-|

∨∨口口
||口口
||口口
④④口口

口口口口
口口口口
口口口口
55口口
61
①①<口 |①--②|
②②<口 |--③-|
③③<口 |④--⑤⑥⑦|
口口口口 |⑧-⑨-|

口2④④
口3口口
口4⑦⑤
⑧⑥口口

⑨⑨口口
口口口口
口口口口
口口口口
62
⑪口口⑩ |①--②|
⑨③②⑧ |--③-|
⑦口口⑥ |④⑤⑥⑦|
⑤口①④ |⑧⑨⑩⑪|
63
⑦⑥口口 |①-②-|
⑥⑦①口 |③-④-|
口口④口 |⑤--⑥|
⑤⑤②③ |--⑦-|
64
口口①口 |①---|
口口口① |②③④⑤|
口⑤④口 |⑥---|
口③②口 |--⑦-|

口口口⑥
⑥口口|
|口口∧
∧口口口

口口口7
7口口口
口口口口
口口口口
65
口①⑦口 |①--②|
⑨⑩⑪⑫ |③④⑤⑥|
⑥⑤④③ |⑦--⑧|
口⑧②口 |⑨⑩⑪⑫|
66
①③④② |①-②-|
口口口口 |③④-⑤|
口口口口 |⑥---|
②⑤⑤① |----|

口∨∨口
口||口
口⑥⑥口
口口口口
67
口>―① |①---|
口口口口 |②---|
口11口 |③---|
口口口口 |④---|

口口口2
口口口口
口>―②
口口口口

口口口口
口口口口
口口口3
③―<口

口口口口
④―<口
口口口口
4口口口
68
口∨口口 |⑤---|
5⑤⑤< |----|
⑤⑤口 |----|
口口∧口 |----|
68
口口口口 |①---|
口11口 |----|
口11口 |----|
口口口口 |----|
最終更新:2022年04月07日 16:29