アットウィキロゴ
Triple Cross
BEMANI Sound Team"dj TAKA & DJ YOSHITAKA & SYUNN"

EXTREME

Level: 10.3
BPM: 196
Notes(hold): 819(47)

1
①<口口 |①---|
口口口口 |----|
口口②口 |----|
口口口口 |--②-|
2
1口口口 |①---|
⑤②③ |②-③-|
口口口① |--④-|
④口口口 |--⑤-|
3
口口口口 |----|
口1口口 |----|
口口口口 |----|
口口①口 |--①-|
4
口口口④ |①---|
口口②③ |②-③-|
口口⑤< |--④-|
口口口① |--⑤-|
5
口口口口 |----|
口口口口 |----|
口①1口 |----|
口口口口 |--①-|
6
口口口口 |①---|
口口口④ |②-③-|
①口口口 |--④-|
③②>⑤ |--⑤-|
7
口口口口 |----|
口口口口 |----|
口①口口 |----|
口口口1 |--①-|
8
⑤<口④ |①---|
③②口口 |②-③-|
①口口口 |--④-|
口口口口 |--⑤-|
9
3口④口 |①---|
⑤口③⑤ |②---|
口口②口 |③---|
口口①口 |④-⑤-|
10
口④④口 |①---|
⑤口口 |②-③-|
口③③口 |--④-|
①②②① |--⑤-|
11
口⑤⑤④ |①---|
口3口③ |②---|
口口口② |③---|
口口口① |④-⑤-|
12
口口口口 |①---|
口口口口 |②-③-|
③口口③ |--④-|
②①①② |--⑤-|

④口口④
口口口口
口口⑤<
口口口口
13
口④口⑤ |①---|
口③口∧ |②---|
口②3口 |③---|
口①口口 |④-⑤-|
14
口口口1 |①---|
口口口口 |②-③-|
②口口③ |④---|
①①口∧ |⑤-⑥-|

⑤口V口
④④⑥口
口口口4
口口口口
15
口④口V |①---|
口③3⑤ |②---|
口②口口 |③---|
口①口口 |④-⑤-|
16
口口⑥口 |①-②-|
①口⑧6 |③-④-|
⑤口②④ |⑤-⑥-|
⑦③口口 |⑦-⑧-|
17
①①口口 |①---|
口口口口 |----|
口口口口 |②-③-|
口口②口 |--④-|

④<口口
口口口③
口口口口
口口口口
18
4⑦⑥① |--①-|
口⑤②口 |②-③-|
口③④口 |④-⑤-|
口口口口 |⑥-⑦-|
19
口口口口 |①---|
②口>④ |----|
口③口口 |②-③-|
口口①① |--④-|
20
口口口⑤ |--①-|
口④⑦4 |②-③-|
③⑥①口 |④-⑤-|
口②口口 |⑥-⑦-|
21
①①口口 |①---|
口口口口 |----|
口口口口 |②-③-|
口口口② |--④-|

④<③口
口口口口
口口口口
口口口口
22
4⑦⑥① |--①-|
口⑤②口 |②-③-|
口③④口 |④-⑤-|
口口口口 |⑥-⑦-|
23
④口口④ |①---|
∧②②∧ |----|
口③③口 |②-③-|
①口口① |--④-|
24
4②①4 |--①-|
口口③口 |②-③-|
口④⑦口 |④-⑤-|
口⑥⑤口 |⑥-⑦-|
25
口③④⑧ |①-②-|
①⑦口② |③-④-|
①⑤口⑧ |⑤-⑥-|
⑤口⑥⑥ |⑦-⑧-|
26
口③口口 |①-②-|
④口⑥① |③-④-|
口⑤②口 |⑤-⑥-|
⑦口⑧口 |⑦-⑧-|
27
⑥⑥③⑦ |①-②-|
⑧口口① |③-④-|
②④⑤① |⑤-⑥-|
⑧口口⑤ |⑦-⑧-|
28
⑦口口⑧ |①-②-|
口②⑤口 |③-④-|
①⑥口④ |⑤-⑥-|
口口③口 |⑦-⑧-|
29
口③④⑧ |①-②-|
①⑦口② |③-④-|
①⑤口⑧ |⑤-⑥-|
⑤口⑥⑥ |⑦-⑧-|
30
口③口口 |①-②-|
④口⑥① |③-④-|
口⑤②口 |⑤-⑥-|
口⑧⑦口 |⑦-⑧-|
31
①口口① |①---|
口口口口 |----|
①口口① |②-③-|
口口口口 |--④-|

口口④口
口②②④
④③③口
口④口口
32
③②口① |--①-|
口⑤⑥⑩ |②-③-|
⑪⑦口④ |④⑤⑥⑦|
口⑨口⑧ |⑧⑨⑩⑪|
33
⑥⑧⑤口 |①-②-|
④口口⑦ |③-④-|
⑧⑥①口 |⑤-⑥-|
②口③口 |⑦-⑧-|
34
⑧口⑦口 |①-②-|
④⑧口口 |③-④-|
口⑥③⑦ |⑤-⑥-|
⑥②⑤① |⑦-⑧-|
35
口⑧口口 |①-②-|
口口⑤① |③-④-|
②口③口 |⑤-⑥-|
⑥④⑦口 |⑦-⑧-|
36
⑥口口③ |①-②-|
⑨⑧⑦口 |③-④-|
④⑤②① |⑤-⑥-|
口口口口 |⑦⑧⑨-|
37
口口>③ |①---|
口口口口 |②-③-|
②口①< |--④-|
口口口口 |⑤⑥⑦⑧|

口口口4
⑧⑦⑥⑤
口口2口
口④口口
38
①口口 |①---|
口口口口 |②-③-|
③<②口 |--④-|
口口口口 |⑤⑥⑦⑧|

口2口④
口口口口
4口口口
⑤⑥⑦⑧
39
口口口口 |①②③-|
⑤<③V |④-⑤⑥|
口④口① |⑦-⑧-|
口口口口 |⑨-⑩⑪|

⑩<⑦口
口口口⑧
口口⑨口
口口口口

11口口口
6口口口
口口口2
口口口口
40
口④③口 |--①-|
口②①口 |②-③-|
⑥口口⑤ |④-⑤-|
口口⑦口 |⑥-⑦-|
41
③⑤⑧⑥ |①-②-|
⑦口⑥④ |③-④-|
口①③⑧ |⑤-⑥-|
口③口② |⑦-⑧-|
42
口⑦口⑧ |①-②-|
口口⑧④ |③-④-|
⑦③⑥口 |⑤-⑥-|
①⑤②⑥ |⑦-⑧-|
43
口口⑧口 |①-②-|
①⑤口口 |③-④-|
口③口② |⑤-⑥-|
口⑦④⑥ |⑦-⑧-|
44
③口口⑥ |①-②-|
口⑦⑧⑨ |③-④-|
①②⑤④ |⑤-⑥-|
口口口口 |⑦⑧⑨-|
45
③<口口 |①---|
口口口口 |②-③-|
①口口 |--④-|
口口口② |⑤⑥⑦⑧|

4口口口
⑤⑥⑦⑧
口2④口
口口口口
46
口②①< |①---|
口口口口 |②-③-|
口口>③ |--④-|
口口口口 |⑤⑥⑦⑧|

口口2口
口口口口
口④口4
⑧⑦⑥⑤
47
口口口口 |①②③-|
V③>⑤ |④-⑤⑥|
①口④口 |⑦-⑧-|
口口口口 |⑨-⑩⑪|

口⑦>⑩
⑧口口口
口⑨口口
口口口口

口口口11
口口口6
2口口口
口口口口
48
⑤口口⑦ |--①-|
口①④口 |②-③-|
③⑥②口 |④-⑤-|
口口口口 |⑥-⑦-|
49
口①V口 |①---|
①++< |----|
++① |----|
口∧①口 |----|
50
口■口口 |----|
■口口口 |----|
口口口■ |----|
口口■口 |----|
51
口■口口 |----|
■口口口 |----|
口口口■ |----|
口口■口 |----|
52
④1口口 |①---|
1③口口 |②---|
口口②1 |③---|
口口1口 |④---|
53
口口③⑤ |①-②-|
⑩⑨⑧⑦ |③-④-|
①口口③ |⑤-⑥-|
⑥④②口 |⑦⑧⑨⑩|
54
①口②口 |①-②-|
⑩⑨⑧⑦ |③-④-|
口④口③ |⑤-⑥-|
口⑥③⑤ |⑦⑧⑨⑩|
55
④口口③ |①-②-|
⑩⑨⑧⑦ |③-④-|
①⑥③⑤ |⑤-⑥-|
口口②口 |⑦⑧⑨⑩|
56
⑧②①⑨ |①②③④|
口口⑩口 |⑤⑥⑦⑧|
口⑩③⑦ |⑨---|
⑥④⑤口 |⑩---|
57
口③口口 |①-②-|
⑦③⑧④ |③-④-|
①口口⑥ |⑤-⑥-|
⑤⑦口② |⑦-⑧-|
58
①③⑧口 |①-②-|
⑦③口④ |③-④-|
⑤口口口 |⑤-⑥-|
口⑦②⑥ |⑦-⑧-|
59
①口⑨④ |①-②-|
口③口口 |③-④-|
⑤⑥⑦⑧ |⑤⑥⑦⑧|
口⑩②口 |⑨-⑩-|
60
口④口口 |①-②-|
②口口① |③-④-|
口口口口 |⑤⑥⑦⑧|
口口口③ |⑨⑩⑪⑫|

⑩口口⑨
口⑧⑦⑪
口⑥⑤口
口⑫口口
61
口④③口 |①-②-|
⑩⑨⑧⑦ |③-④-|
②⑥口③ |⑤-⑥-|
口口①⑤ |⑦⑧⑨⑩|
62
①⑥②口 |①-②-|
⑩⑨⑧⑦ |③-④-|
口口⑤③ |⑤-⑥-|
④口③口 |⑦⑧⑨⑩|
63
④口口③ |①-②-|
⑩⑨⑧⑦ |③-④-|
①⑥口③ |⑤-⑥-|
口口②⑤ |⑦⑧⑨⑩|
64
⑧②①⑨ |①②③④|
口口口口 |⑤⑥⑦⑧|
⑥口③⑦ |⑨---|
口④⑤⑩ |⑩---|
65
口⑤口口 |①②③④|
②③④口 |⑤-⑥-|
口①口口 |⑦---|
口⑥口口 |⑧⑨⑩⑪|

⑦口口口
口口口口
⑨⑩⑪口
⑧口口口
66
口口⑤⑦ |①②③④|
口④③② |⑤-⑥-|
⑪⑩⑨① |⑦---|
口口⑥⑧ |⑧⑨⑩⑪|
67
⑨⑧⑦⑥ |①②③④|
①②③④ |⑤-⑥⑦|
⑭⑬⑫⑪ |⑧⑨⑩-|
口⑤⑩口 |⑪⑫⑬⑭|
68
口口口口 |①②③④|
①②③④ |⑤-⑥-|
口口口口 |⑦⑧⑨⑩|
口⑤口⑥ |⑪⑫⑬⑭|

⑩⑧⑦口
口⑭口口
口⑫⑬⑨
口口⑪口
69
⑤⑤④① |①-②-|
②口①③ |③-④-|
④⑦口⑥ |--⑤-|
⑦②⑥③ |⑥-⑦-|
70
口口口口 |----|
口口口口 |----|
口口口口 |----|
口口口口 |----|
71
口⑧③① |①-②-|
⑤⑦⑥ |③-④-|
⑧口④② |⑤-⑥-|
⑤<③① |⑦-⑧-|

口口口口
口6口口
口口口口
6口口口
72
③口③口 |①-②-|
④口口口 |③-④-|
口②口① |--⑤-|
口口④① |--⑥-|

口口口⑥
口⑤⑤口
口口口口
口⑤口⑥
73
口口③口 |①-②-|
口口口① |③-④-|
口④②口 |⑤-⑥-|
口口③口 |⑦-⑧-|

⑧⑧口口
V⑤⑦口
||口⑥
⑤∧口口

口口口口
口6口口
口口口口
6口口口
74
⑥口③④ |①-②-|
口口⑤① |③-④-|
③⑤⑤口 |--⑤-|
⑥②④① |--⑥-|
75
口④口口 |①-②-|
②③⑦口 |③-④-|
口⑤⑥口 |⑤-⑥-|
口口⑧① |⑦-⑧-|
76
⑥口口④ |①-②-|
口⑤⑤① |③-④-|
②④⑤口 |--⑤-|
⑥③口口 |--⑥-|
77
口口①⑦ |①-②-|
②⑧口口 |③-④-|
口④口③ |⑤-⑥-|
口⑥⑤口 |⑦-⑧-|
78
④口口口 |①-②-|
②口口口 |③-④-|
口口③口 |--⑤-|
④口口① |--⑥-|

口⑤口⑥
口口⑤口
⑤口口口
口口口⑥
79
口⑧③口 |①-②-|
⑤⑦⑥ |③-④-|
⑧④②① |⑤-⑥-|
⑤<③口 |⑦-⑧-|

口口口口
口6口口
口口口口
6口口口
80
②口④口 |①-②-|
④口口口 |③-④-|
口③①③ |--⑤-|
口口口① |--⑥-|

口口口⑥
口⑤⑤口
口口口口
口⑤口⑥
81
⑧⑧③口 |①-②-|
⑤⑦① |③-④-|
口④②⑥ |⑤-⑥-|
⑤<③口 |⑦-⑧-|

口口口口
口6口口
口口口口
6口口口
82
⑥口③④ |①-②-|
口⑤⑤① |③-④-|
②⑤口口 |--⑤-|
⑥③④① |--⑥-|
83
⑦⑥⑤③ |①-②-|
④⑦口口 |③-④-|
②口⑤③ |⑤-⑥-|
⑧⑧口① |⑦-⑧-|
84
⑧⑦⑥③ |①-②-|
⑦⑧③口 |③-④-|
⑤②④④ |⑤-⑥-|
口口①口 |⑦-⑧-|
85
口⑥⑥① |--①-|
口口口口 |②-③-|
④⑦⑦口 |④-⑤-|
②口③⑤ |⑥-⑦-|
86
⑥口口⑥ |①-②-|
④③②① |③-④-|
口口口口 |⑤-⑥-|
口⑤⑤口 |----|
87
口②口口 |①---|
口口口口 |②---|
①①口口 |③-④-|
口口口口 |--⑤-|

⑤<口口
口口口口
口口口④
口口③口
88
4⑦⑥① |--①-|
口⑤②口 |②-③-|
口③④口 |④-⑤-|
口口口口 |⑥-⑦-|
89
口口口② |①---|
③口>⑤ |②---|
口④口口 |③-④-|
口口①① |--⑤-|
90
口口口⑤ |--①-|
口④⑦4 |②-③-|
③⑥①口 |④-⑤-|
口②口口 |⑥-⑦-|
91
①①口口 |①---|
口口口口 |②---|
口口口口 |③-④-|
口②口口 |--⑤-|

⑤<口口
口口口口
口口④口
口口口③
92
4⑦⑥① |--①-|
口⑤②口 |②-③-|
口③④口 |④-⑤-|
口口口口 |⑥-⑦-|
93
口VV口 |①---|
②④④② |----|
口口口口 |②-③-|
①③③① |--④-|
94
口口口口 |----|
口口口口 |----|
口口口口 |----|
口口口口 |----|
95
口口口口 |----|
口11口 |----|
口口口口 |----|
口口口口 |--①-|
最終更新:2022年04月07日 16:31