アットウィキロゴ
天空の夜明け (BEMANI SYMPHONY Arr.)
Cuvelia × Nagiha + gaQdan

EXTREME

Level: 9.1
BPM: 150
Notes(hold): 578(126)

1
①<口口 |①---|
口②口口 |②-③-|
口口口口 |④---|
口口口口 |⑤---|

3>④口
口口口口
口口口口
口口口口

口口5口
口>⑤口
口口口口
口口口口
2
口口口口 |①---|
口口1口 |②-③-|
∨口②口 |④---|
①口口口 |⑤-⑥-|

口口口口
口口口口
口口口口
3>④口

口口口口
口口口口
⑤口口口
口口6口
3
口∨口口 |①---|
口①口口 |②-③-|
口②口口 |④---|
口口口口 |⑤-⑥-|

口口∨口
口3④口
口口⑤口
口口口口

口口口口
口口6口
口口口口
口口口口
4
口口口∨ |①-②-|
②口口① |----|
口③口口 |③---|
口口口口 |④---|

口口口口
口口口4
口口口口
口④口口
5
①<口口 |①---|
口②口口 |②-③-|
口口口口 |④---|
口口口口 |⑤---|

3>④口
口口口口
口口口口
口口口口

口口5口
口>⑤口
口口口口
口口口口
6
口口口口 |①---|
口口1口 |②-③-|
∨口②口 |④---|
①口口口 |⑤-⑥-|

口口口口
口口口口
口口口口
3>④口

口口口口
口口口口
⑤口口口
口口6口
7
口∨口口 |①---|
口①口口 |②-③-|
口②口口 |④---|
口口口口 |⑤-⑥-|

口口∨口
口3④口
口口⑤口
口口口口

口口口口
口口6口
口口口口
口口口口
8
口口口∨ |①---|
口口口① |②---|
口口口口 |③---|
口口口口 |④---|

口口口口
④口口3
口③口口
口口②口
9
①<口口 |①-②-|
口口口口 |--③-|
口口②口 |④-⑤-|
口口口口 |⑥---|

3>④口
口③口口
口⑤口口
口口口口

口口6口
口>⑥口
口口口口
口口口口
10
口口口口 |①-②-|
口②1口 |--③-|
∨口口口 |④-⑤-|
①口口口 |⑥-⑦-|

口口口口
口口口口
口⑥③口
3⑤④<

口口口口
口口口口
口口口口
口口7口
11
∨口口口 |①---|
①口口② |②-③-|
口口口口 |④---|
口口口口 |⑤-⑥-|

口口口口
3∨口口
口④口⑤
口口口口

口口口口
口口口口
口6口口
口口口口
12
口口口口 |①---|
口口口口 |②---|
口口∨口 |③---|
口口①口 |④---|

口口口口
④口口口
③口口口
②口4口
13
①<口口 |①-②-|
口口口口 |--③-|
口口②口 |④-⑤-|
口口口口 |⑥---|

3>④口
口③口口
口⑤口口
口口口口

口口6口
口>⑥口
口口口口
口口口口
14
口口口口 |①-②-|
口②1口 |--③-|
∨口口口 |④-⑤-|
①口口口 |⑥-⑦-|

口口口口
口口口口
口⑥③口
3⑤④<

口口口口
口口口口
口口口口
口口7口
15
口口口口 |①---|
口口口口 |②-③-|
①<口② |④---|
口口口口 |⑤-⑥-|

口口口口
口④<⑤
3口口口
口口口口

口口口口
口6口口
口口口口
口口口口
16
②口①< |①-②-|
口口口口 |--③-|
口口口口 |----|
口口口口 |----|

口③3口
口口口口
口口口口
口口口口
17
口口∨口 |①---|
口口|∨ |②---|
口口①| |③④⑤⑥|
口口口① |⑦⑧⑨⑩|

③④口口
⑤⑥口口
⑦⑧2口
⑨⑩口2
18
⑥口⑦⑦ |①-②-|
口④口⑤ |③-④-|
口口②③ |⑤-⑥-|
口口口① |⑦---|
19
口口口口 |①②③④|
①――< |----|
口口口口 |⑤⑥⑦⑧|
口口口口 |----|

口①口口
4②口口
口③口口
口④口口

口口口口
口口口口
⑤――<
口口口口

口口⑤口
口口⑥口
8口⑦口
口口⑧口
20
口口>④ |①---|
③<口口 |②---|
口口>② |③---|
①<口口 |④---|

口口口口
4口口口
口口口3
2口口口
21
∨口口1 |①---|
|∨口口 |②---|
①|口口 |③④⑤⑥|
口①口口 |⑦⑧⑨⑩|

口口⑨⑩
口口⑦⑧
2口⑤⑥
口2③④
22
①口口口 |①-②-|
③②口口 |③-④-|
⑤口④口 |⑤-⑥-|
⑦⑦口⑥ |⑦---|
23
口口口口 |①②③④|
①――< |----|
口口口口 |⑤⑥⑦⑧|
口口口口 |----|

口口①口
4口②口
口口③口
口口④口

口口口口
口口口口
⑤――<
口口口口

口⑤口口
口⑥口口
8⑦口口
口⑧口口
24
口口>④ |①---|
③<口口 |②---|
口口>② |③---|
①<口口 |④---|

口口口口
4口口口
口口口3
2口口口
25
①口③1 |①-②-|
口④口口 |③④⑤-|
口②⑤口 |⑥-⑦-|
口口口口 |⑧⑨⑩-|

口口口⑧
口口⑨口
口⑩口口
口⑦口⑥
26
口口①口 |①-②③|
口④口⑤ |④-⑤-|
②口③口 |⑥-⑦-|
口口口口 |----|

⑥――<
口口口口
口口口口
口口口口

7口口口
口口口口
口口口口
口口口口
27
口口口口 |①②③④|
口③口⑦ |⑤⑥⑦⑧|
①④⑤⑧ |⑨-⑩-|
②口⑥口 |----|

口口口口
口口口口
口口口口
――⑨

口口口口
口口口口
口口口口
口口口⑩
28
①①口口 |①-②-|
口③③口 |③-④-|
②口口口 |⑤-⑥-|
口④口口 |⑦---|

⑦口口⑦
口口口口
口口⑥⑥
口口口⑤
29
∨④口口 |①---|
|口③口 |②---|
|②口口 |③---|
①口口口 |④---|
30
口口口① |①---|
口口②口 |②---|
口口口③ |③---|
4口④口 |④---|
31
口口口口 |①---|
①①<口 |②---|
口口口口 |③---|
口口口口 |④---|

口口口②
口2口口
③③<口
口口口口

口口口口
口口口④
口4口口
口口口口
32
∨∨口口 |①---|
||口口 |----|
||口口 |----|
①①口口 |----|
33
口口口口 |①---|
口口∨∨ |----|
口口|| |----|
口口①① |②---|

口口口口
口口口口
口口口口
2222
34
口口口口 |①---|
口①①口 |----|
口①①口 |----|
口口口口 |----|
35
①口口口 |①---|
口口②口 |--②-|
口③口口 |--③-|
口口口口 |----|
36
口口口口 |①-②-|
①②口口 |--③-|
口口口③ |--④-|
口④⑤口 |⑤---|
37
①<口口 |①---|
口口口口 |--②③|
口口口口 |④---|
口口口口 |⑤---|

2口口⑤
口口口②
口口③口
口口口④
38
口口口口 |①---|
口口口口 |--②③|
口口口口 |④---|
口①<口 |⑤---|

口口口⑤
口口口②
口口③口
口2口④
39
①<口口 |①---|
口口口口 |--②③|
口口口口 |④---|
口口口口 |⑤---|

2口口口
口>④口
口③口口
口口②口

口口口口
口口5口
口口口口
口口口口
40
口口口口 |①---|
口口口口 |--②③|
口口①口 |④---|
口口∧口 |⑤---|

②口口口
口③口口
④<2口
口口口口

口口口口
口口口口
5口口口
口口口口
41
③口>① |①---|
口②口口 |----|
口口口口 |②---|
口口口口 |③---|
42
口>④1 |①---|
口口③< |②---|
口>②口 |③---|
口口①< |④---|

口口口口
口口4口
口口3口
口口2口
43
口∨1口 |①---|
口|②② |----|
口|口口 |②---|
口①③③ |③---|
44
口口②口 |①---|
口③∨∨ |②---|
④口①① |③---|
口1口口 |④---|

口口口口
口口口口
口口44
口口口口
45
口④口⑧ |①-②-|
口口⑤口 |③-④⑤|
口⑥口⑦ |⑥-⑦-|
口①②③ |⑧---|
46
⑧口④口 |①-②-|
口⑤口口 |③-④⑤|
⑦口⑥口 |⑥-⑦-|
③②①口 |⑧---|
47
口⑥口⑧ |①-②-|
口口⑤口 |③-④⑤|
口④口⑦ |⑥-⑦-|
口①②③ |⑧---|
48
⑦口④口 |①-②-|
口⑤⑧口 |③-④⑤|
⑨口⑥口 |⑥-⑦-|
③②①口 |⑧-⑨-|
49
④<口口 |①---|
口③<口 |②---|
口②<口 |③---|
口>①口 |④---|

口口口口
口口口口
口4口口
口口3口
50
2口>① |①---|
②1口口 |②---|
③口口口 |③---|
口口口口 |④---|

口∨口4
口|口口
口|口口
口④口口
51
口口口口 |①---|
口口口口 |---②|
口口∨口 |③---|
口1①口 |④---|

③③<口
口口口口
②②口口
口口2口

口4口口
口口口口
口口口口
口口口口
52
口口口口 |①---|
口口①① |②---|
②②∨∨ |③---|
口口③③ |④---|

口口口口
口口口口
口口口口
口口44
53
⑤⑤①① |①---|
口>①① |②-③-|
口③④④ |④---|
③>④④ |⑤---|

口口口口
口口2口
口口口口
口口5口
54
⑤⑤①① |①---|
口>①① |②-③-|
③>④④ |④---|
口③④④ |⑤---|

口口口口
口口2口
口口5口
口口口口
55
⑤⑤①① |①---|
口>①① |②-③-|
口③④④ |④---|
③>④④ |⑤---|

口口口口
口口2口
口口口口
口口5口
56
口口①① |①---|
口>①① |②---|
③③③③ |③---|
口③③口 |----|

口口口口
口口2口
口口口口
口口口口
57
口口③③ |①--②|
口口口口 |③---|
口口②② |④---|
①<口口 |⑤---|

口∨口口
口④口口
口⑤口口
4∧口口

口口口口
口5口口
口口口口
口口口口
58
口口>① |①---|
②<口口 |②---|
口1>③ |③---|
④<口口 |④---|

口口口2
3口口口
口口口4
口口口口
59
③③口口 |①--②|
口口口口 |③---|
②②口口 |④---|
1口>① |⑤---|

口口∨口
口口④口
口口⑤口
口口∧4

口口口口
口口5口
口口口口
口口口口
60
①<口口 |①---|
口口>② |②---|
③<1口 |③---|
口口>④ |④---|

2口口口
口口口3
4口口口
口口口口
61
①①<③ |①--②|
①①口口 |③---|
④④②口 |④--⑤|
④④<1 |⑥---|

口2⑥口
口口口口
口口口⑤
口5口口
62
①①口口 |①--②|
①①<③ |③---|
口口口口 |④--⑤|
口口②口 |⑥---|

口口口口
口2⑥口
④④口口
④④<⑤

口口口口
口口口口
口口口口
口5口口
63
①①<③ |①--②|
①①口口 |③---|
口口②口 |④--⑤|
口口口口 |⑥---|

口2⑥口
口口口口
④④<⑤
④④口口

口口口口
口口口口
口5口口
口口口口
64
①①<③ |①--②|
①①口口 |③---|
口口②口 |④---|
④――< |⑤---|

口2口口
口口口口
口口口口
5口口口
65
⑤<口口 |①---|
口口>③ |②---|
口>③② |③---|
③②① |④-⑤-|

口口口口
口口口4
口口4口
口4口口
66
2口口口 |①-②-|
口①<口 |③---|
口口口口 |④---|
口口口口 |⑤---|

口口口∨
口3∨|
口∨||
口⑤④③
67
∨口③③ |①---|
|口口口 |--②-|
|口②② |③---|
①111 |④---|

口口口口
口口口口
口口口口
3口④④
68
口口口口 |①---|
①①①① |----|
②②②② |②---|
口口口口 |----|
69
口口口④ |①---|
口口③口 |②---|
∨∨口② |③---|
①①①① |④---|

口口口口
口口口口
口口口口
44口口
70
①①④口 |①---|
||口③ |②---|
∧∧②口 |③---|
口口口① |④---|
71
44④④ |①---|
口口③③ |②---|
口口②② |③---|
口口①① |④---|
72
口口口口 |----|
口口口口 |----|
口口口口 |----|
口口口口 |----|
73
口口口口 |----|
口口口口 |----|
口口口口 |----|
口口口口 |----|
74
①――< |①---|
口口口口 |----|
口口口口 |----|
口口口口 |----|
75
口口口口 |-①--|
口口口口 |----|
①――< |----|
口口口口 |----|
76
口口口口 |----|
口>―① |①---|
口口②口 |----|
口口口口 |--②-|
77
口口②口 |----|
口①口口 |-①--|
口口口口 |---②|
口口口口 |----|
78
口口口口 |----|
口口口口 |----|
口口口口 |----|
口口口口 |----|
79
口口口口 |----|
口口口口 |----|
口口口口 |----|
口口口口 |----|
80
1口口口 |--①-|
口口口1 |----|
1口口口 |----|
口口口口 |----|
最終更新:2022年04月07日 16:32