アットウィキロゴ
FLOWER (BEMANI SYMPHONY Arr.)
DJ YOSHITAKA × onoken + gaQdan

ADVANCED

Level: 9.1
BPM: 158
Notes(hold): 725(41)

1
口口口口 |----|
口口口口 |----|
口口口口 |----|
口口口口 |----|
2
①――< |①---|
口口口口 |----|
口口口口 |----|
口口口口 |----|
3
口口口口 |----|
口口口口 |----|
口口口口 |----|
口口口口 |----|
4
1口口口 |----|
③口口口 |①---|
口②口口 |②---|
口口①口 |③---|
5
口>―① |①---|
②―<口 |----|
口口口口 |②---|
口口口口 |----|

口口口2
口口口口
口口口口
口口口口
6
口②―< |①---|
口口口口 |----|
口>―① |②---|
口口口口 |----|

口口口口
1口口口
口口口2
口口口口
7
口1口① |①---|
口口②口 |②---|
口③口口 |③---|
④口口口 |④---|
8
口口②口 |①---|
口③口口 |----|
口口④口 |--②-|
口口口① |③-④-|
9
口①口① |--①-|
②口②口 |--②-|
口口口口 |--③-|
口③口③ |----|
10
①――< |①---|
口口口口 |----|
口口②① |----|
口口口口 |②---|
11
口口口口 |①---|
口口①口 |----|
口②口口 |----|
口口口口 |②---|
12
2口口② |①---|
口①口口 |----|
口口口口 |----|
口口口口 |②-③-|

口口口口
③――<
口口口口
口口口口
13
口口口口 |--①-|
口口口口 |--②-|
口>―① |--③-|
口口口口 |--④-|

口∨口口
口|③口
口②|口
口口∧口

口口口口
口口口口
口口口口
④――<

口口口口
1口4口
口3口2
口口口口
14
口口口口 |----|
口口口口 |----|
口口口口 |----|
口口口口 |----|
15
口口口口 |----|
口口口口 |----|
口口口口 |----|
口口口口 |----|
16
口口口口 |①-②-|
④③②① |③-④-|
口口口⑤ |--⑤-|
1口⑥口 |--⑥-|
17
口①―< |①---|
―②口 |----|
口口口口 |-②--|
口口口口 |----|

口2口口
口口口口
口口口口
口口口口
18
口口∨口 |①---|
口∨|口 |--②-|
口|②口 |----|
口①口口 |③---|

③――<
口口口口
口口口口
口口口口

口口口口
口口1口
口口3口
口2口口
19
口口口④ |①---|
口口口③ |②---|
口口口② |③---|
口口口① |④---|
20
4口④口 |①---|
口口③口 |②---|
口口②口 |③---|
口口①口 |④-⑤-|

口口口口
口⑤―<
口口口口
口口口口
21
口口口口 |--①-|
口口口口 |--②-|
―①口 |--③-|
口②―< |--④-|

④――<
口口口口
口>―③
口口口口

口口口口
口1口口
口口24
口3口口
22
口口口口 |----|
口口③口 |①---|
口口②口 |②---|
口口①口 |③---|
23
口口口④ |①---|
口口口③ |②---|
口口口② |③---|
口口口① |④---|
24
1⑥口口 |①---|
口口③⑤ |②---|
④口②口 |③-④-|
口口①口 |⑤-⑥-|
25
口口①⑤ |①-②-|
⑧④口口 |③-④-|
口口③⑦ |⑤-⑥-|
⑥②口口 |⑦-⑧-|
26
口①①口 |①--②|
口③⑦② |③-④-|
口⑤⑧⑥ |⑤-⑥-|
口⑦④口 |⑦-⑧-|
27
①口口① |①--②|
③口⑦② |③-④-|
⑤口⑧⑥ |⑤-⑥-|
⑦口④口 |⑦-⑧-|
28
口①①口 |①--②|
口③⑦② |③-④-|
口⑤⑧⑥ |⑤-⑥-|
口⑦④口 |⑦-⑧-|
29
①口口① |①--②|
③口⑦② |③-④-|
⑤口⑧⑥ |⑤-⑥-|
⑦口④口 |⑦-⑧-|
30
①口口② |①-②-|
③口口④ |③-④-|
⑤口口⑥ |⑤-⑥-|
⑦口口⑧ |⑦-⑧-|
31
口①②口 |①-②-|
口③④口 |③-④-|
口⑤⑥口 |⑤-⑥-|
口⑦⑧口 |⑦-⑧-|
32
①口口② |①②③④|
③⑬⑬④ |⑤⑥⑦⑧|
⑤⑨⑩⑥ |⑨⑩⑪⑫|
⑦⑪⑫⑧ |⑬---|
33
①④③② |①--②|
②⑥⑥① |--③-|
①③④② |-④--|
③⑤⑤④ |⑤-⑥-|
34
①口口① |①-②③|
⑧⑫⑬⑨ |-④⑤-|
②③⑤④ |⑥⑦⑧⑨|
⑥⑩⑪⑦ |⑩⑪⑫⑬|
35
口①①口 |①-②③|
⑥⑩⑪⑦ |-④⑤-|
②③⑤④ |⑥⑦⑧⑨|
⑫⑧⑨⑬ |⑩⑪⑫⑬|
36
①口口① |①-②③|
⑫⑧⑨⑬ |-④⑤-|
②③⑤④ |⑥⑦⑧⑨|
⑩⑥⑦⑪ |⑩⑪⑫⑬|
37
③①①③ |①-②③|
口⑤⑤口 |-④⑤-|
口②④口 |⑥⑦⑧⑨|
⑥⑦⑧⑨ |----|
38
①口口① |①-②③|
⑧⑫⑬⑨ |-④⑤-|
②③⑤④ |⑥⑦⑧⑨|
⑥⑩⑪⑦ |⑩⑪⑫⑬|
39
口①①口 |①-②③|
⑥⑩⑪⑦ |-④⑤-|
②③⑤④ |⑥⑦⑧⑨|
⑫⑧⑨⑬ |⑩⑪⑫⑬|
40
①口口① |①-②③|
⑫⑧⑨⑬ |-④⑤-|
②③⑤④ |⑥⑦⑧⑨|
⑩⑥⑦⑪ |⑩⑪⑫⑬|
41
③①①③ |①-②③|
口⑤⑤口 |-④⑤-|
口②④口 |⑥---|
口⑥⑥口 |⑦⑧⑨⑩|

口⑨⑩口
口口口口
⑦口口⑧
口口口口
42
①――< |①---|
口口口② |----|
口③口口 |----|
口口口口 |--②③|
43
口口口口 |①---|
口③④口 |②-③-|
口④③口 |--④-|
②>―① |--⑤-|

口口∨口
口口|口
口口|口
口⑤⑤口

1口口口
口口口口
口口口口
口口口2
44
口口②口 |----|
口口口口 |----|
口口口口 |----|
①口1口 |①-②-|
45
口口口口 |①---|
①―<口 |--②-|
口口口口 |③-④-|
口口口口 |⑤-⑥-|

口③口口
2口④②
口⑤口口
口口⑥口
46
口口口口 |①---|
口口口口 |--②-|
―②口 |----|
口①―< |③---|

口口口口
口口口口
口口3口
③2口口
47
②―<口 |①---|
口>―① |----|
口口口口 |②---|
口口口口 |----|

口口口口
口口口2
口口口口
口口口口
48
口口口口 |①---|
口口∨口 |----|
口口|③ |----|
口②①口 |②-③-|

1口口口
口口口口
口口口口
口口2口
49
②口⑥① |①--②|
⑥④④⑦ |--③-|
③⑦③⑤ |④-⑤-|
①⑤口② |⑥-⑦-|
50
③①④② |①--②|
⑥口口⑥ |--③-|
⑤口口⑤ |-④--|
①③②④ |⑤-⑥-|
51
口①口③ |①-②-|
口④口口 |③④⑤-|
⑥⑦⑧⑨ |⑥⑦⑧⑨|
口②⑤口 |----|
52
③①④② |①--②|
⑥口口⑥ |--③-|
⑤口口⑤ |-④--|
①③②④ |⑤-⑥-|
53
口①口③ |①-②-|
口④口⑨ |③④⑤-|
⑥⑦口口 |⑥⑦-⑧|
口②⑤⑧ |--⑨-|
54
③①④② |①--②|
⑥口口⑥ |--③-|
⑤口口⑤ |-④--|
①③②④ |⑤-⑥-|
55
口①口③ |①-②-|
口④口口 |③④⑤-|
⑥⑦⑧⑨ |⑥⑦⑧⑨|
口②⑤口 |----|
56
③①④② |①--②|
⑥口口⑥ |--③-|
⑤口口⑤ |-④--|
①③②④ |⑤-⑥-|
57
口①口③ |①-②-|
口④口⑨ |③④⑤-|
⑥口⑦口 |⑥⑦-⑧|
口②⑤⑧ |--⑨-|
58
口口口① |①---|
①口①口 |----|
口①口① |----|
①口口口 |----|
59
⑤口口⑥ |①---|
口口口口 |②---|
口①②口 |③-④-|
③口口④ |⑤-⑥-|
60
口口口口 |①---|
口>―① |②---|
口口口口 |③---|
口口口口 |④---|

口口口口
口②口2
③―<口
口口口口

口口口口
口口口口
4口④口
口口口口
61
口口口口 |①---|
口口∨口 |②---|
口口|口 |③---|
口口①口 |④---|

口③口口
口|②口
口∧口口
口口2口

口4口口
口口口口
口④口口
口口口口
62
口口口口 |①---|
―①口 |②---|
口口口口 |③---|
口口口口 |④---|

口口口口
②口2口
口③―<
口口口口

口口口口
口口口口
口4口④
口口口口
63
口口口口 |①---|
口口①口 |②---|
口口|口 |③-④-|
口口∧口 |⑤-⑥-|

③口口口
口口2④
⑤口口口
口口②⑥
64
口口口口 |①---|
口∨口口 |②-③-|
口|口口 |----|
口①口口 |④---|

口口③③
口②口口
口口④④
口2口口
65
口口口口 |①---|
①―<口 |②---|
口口口口 |③---|
口口口口 |④---|

口口口口
2口②口
口>―③
口口口口

口口口口
口口口口
口④口4
口口口口
66
口口∨口 |①---|
②口|口 |②---|
③口|口 |③---|
口口①口 |④⑤⑥⑦|

口口⑦口
口⑥口口
口口⑤口
口④4口
67
①口口① |①---|
②口口② |②---|
③口口③ |③---|
④口口④ |④---|
68
口①①口 |①--②|
口③⑦② |③-④-|
口⑤⑧⑥ |⑤-⑥-|
口⑦④口 |⑦-⑧-|
69
①口口① |①--②|
③口⑦② |③-④-|
⑤口⑧⑥ |⑤-⑥-|
⑦口④口 |⑦-⑧-|
70
口①①口 |①--②|
口③⑦② |③-④-|
口⑤⑧⑥ |⑤-⑥-|
口⑦④口 |⑦-⑧-|
71
①口口① |①--②|
③口⑦② |③-④-|
⑤口⑧⑥ |⑤-⑥-|
⑦口④口 |⑦-⑧-|
72
①口口② |①-②-|
③口口④ |③-④-|
⑤口口⑥ |⑤-⑥-|
⑦口口⑧ |⑦-⑧-|
73
口①②口 |①-②-|
口③④口 |③-④-|
口⑤⑥口 |⑤-⑥-|
口⑦⑧口 |⑦-⑧-|
74
①口口② |①②③④|
③⑬⑬④ |⑤⑥⑦⑧|
⑤⑨⑩⑥ |⑨⑩⑪⑫|
⑦⑪⑫⑧ |⑬---|
75
①④③② |①--②|
②⑥⑥① |--③-|
①③④② |-④--|
③⑤⑤④ |⑤-⑥-|
76
①口口① |①-②③|
⑧⑫⑬⑨ |-④⑤-|
②③⑤④ |⑥⑦⑧⑨|
⑥⑩⑪⑦ |⑩⑪⑫⑬|
77
口①①口 |①-②③|
⑥⑩⑪⑦ |-④⑤-|
②③⑤④ |⑥⑦⑧⑨|
⑫⑧⑨⑬ |⑩⑪⑫⑬|
78
①口口① |①-②③|
⑫⑧⑨⑬ |-④⑤-|
②③⑤④ |⑥⑦⑧⑨|
⑩⑥⑦⑪ |⑩⑪⑫⑬|
79
③①①③ |①-②③|
口⑤⑤口 |-④⑤-|
口②④口 |⑥⑦⑧⑨|
⑥⑦⑧⑨ |----|
80
①口口① |①-②③|
⑧⑫⑬⑨ |-④⑤-|
②③⑤④ |⑥⑦⑧⑨|
⑥⑩⑪⑦ |⑩⑪⑫⑬|
81
口①①口 |①-②③|
⑥⑩⑪⑦ |-④⑤-|
②③⑤④ |⑥⑦⑧⑨|
⑫⑧⑨⑬ |⑩⑪⑫⑬|
82
①口口① |①-②③|
⑫⑧⑨⑬ |-④⑤-|
②③⑤④ |⑥⑦⑧⑨|
⑩⑥⑦⑪ |⑩⑪⑫⑬|
83
③①①③ |①-②③|
⑦⑤⑤⑦ |-④⑤-|
口②④口 |⑥--⑦|
口⑥⑥口 |----|
84
③①④② |①--②|
⑥口口⑥ |--③-|
⑤口口⑤ |-④--|
①③②④ |⑤-⑥-|
85
口①口③ |①-②-|
口④口口 |③④⑤-|
⑥⑦⑧⑨ |⑥⑦⑧⑨|
口②⑤口 |----|
86
③①④② |①--②|
口口口口 |--③-|
口口口口 |-④--|
①③②④ |⑤-⑥-|

口口口⑥
⑥口⑥口
口⑤口⑤
⑤口口口
87
口口口口 |----|
口口口口 |----|
口口口口 |----|
口口口口 |----|
最終更新:2022年04月07日 16:35