アットウィキロゴ
FLOWER (BEMANI SYMPHONY Arr.)
DJ YOSHITAKA × onoken + gaQdan

EXTREME

Level: 10.5
BPM: 158
Notes(hold): 910(57)

1
口口口口 |----|
口口口口 |----|
口口口口 |----|
口口口口 |----|
2
口口口口 |①---|
①口口< |----|
口口口口 |----|
口口① |----|
3
口口口口 |----|
口口口口 |----|
口口口口 |----|
口口口口 |----|
4
口口口口 |----|
①③口口 |①---|
口口②口 |②---|
口①口口 |③---|
5
①口<口 |①---|
口口口口 |----|
口>口① |②---|
口口口① |----|

②口口口
②><②
口口口②
口口口口
6
口口① |①---|
①口口① |----|
①口<口 |②---|
口口口口 |----|

口口口口
口口②口
②口口口
口口口口
7
口②①① |①---|
③口③口 |②---|
口④口口 |③---|
口口口口 |④---|
8
口口口② |①---|
口口③口 |----|
口④<口 |--②-|
口口①口 |③-④-|
9
口①>② |--①-|
口∧口∨ |--②-|
口口口③ |--③-|
口口口口 |--④⑤|

口②口③
口⑤口口
④①口④
口口口口
10
口①口 |①---|
④⑤口口 |----|
②③口口 |----|
口口口口 |②③④⑤|
11
①口口口 |①---|
口⑤口口 |----|
④③口口 |----|
②口口口 |②③④⑤|
12
口②②口 |①---|
①口口口 |----|
口口口口 |----|
③口<口 |②-③-|
13
口③口 |--①-|
口②口< |--②-|
口①口 |--③-|
①口口口 |--④-|

口口④口
口③口口
口口②口
④口口<
14
口口口口 |----|
口口口① |--①-|
口口口口 |----|
口口口② |②---|
15
口③口④ |--①-|
口①②口 |②-③-|
口⑤口口 |--④-|
口口口口 |--⑤-|
16
口口①口 |①-②-|
口③口口 |③-④-|
⑥口②⑤ |--⑤-|
①④口口 |--⑥-|
17
①口<口 |①-②-|
口口口口 |③-④-|
口口口口 |--⑤-|
口④③② |----|

⑤口口口
口>口⑤
口口口口
口口口口
18
⑤>口⑤ |①---|
④口口① |②-③-|
②口③< |④---|
①>①口 |⑤---|

口口口口
口口口口
口口⑤口
口口③口
19
④口口口 |①---|
③口口口 |②---|
②口口口 |③---|
①口口口 |④---|
20
④口④④ |①---|
③口口口 |②---|
②>⑤口 |③---|
①口口口 |④-⑤-|
21
⑦口口口 |①-②-|
⑤②<口 |③-④-|
③口>⑥ |⑤-⑥-|
①>④口 |⑦-⑧-|

口口口口
口④⑧<
口口②⑧
口口⑥口
22
⑤口口口 |①---|
④口口口 |②-③-|
②③⑤口 |④---|
①口口口 |⑤---|
23
⑤口口口 |①-②-|
④口口口 |③---|
③④口② |④---|
①口⑤口 |⑤---|
24
口口口④ |①---|
④口①口 |②-③-|
②口①③ |④-⑤-|
①⑤口口 |⑥-⑦-|

⑥口口口
口⑦口口
口口⑥口
口口口口
25
⑦口①⑤ |①-②-|
⑤口④口 |③-④-|
③口⑧③ |⑤-⑥-|
①⑦②⑥ |⑦-⑧-|
26
口①①⑦ |①--②|
④②口③ |③-④-|
口⑧口⑤ |⑤-⑥-|
⑥口⑦口 |⑦-⑧-|
27
⑦①①口 |①--②|
③口②④ |③-④-|
⑤口⑧口 |⑤-⑥-|
口⑦口⑥ |⑦-⑧-|
28
口①①⑦ |①--②|
④②口③ |③-④-|
口⑧口⑤ |⑤-⑥-|
⑥口⑦口 |⑦-⑧-|
29
⑦①①口 |①--②|
③口②④ |③-④-|
⑤口⑧口 |⑤-⑥-|
口⑦口⑥ |⑦-⑧-|
30
口口口口 |①-②③|
口②⑥口 |--④-|
⑤><① |⑤-⑥⑦|
③⑧④⑦ |--⑧-|

口口口口
口口口口
⑦口口③
口口口口
31
口口口口 |①-②③|
口>口① |--④-|
口口口口 |⑤-⑥⑦|
口口口口 |--⑧-|

⑤口<口
口②⑥③
口口口口
③⑧④⑦

⑦口口口
口口口口
口口口口
口口口口
32
⑫⑧口① |①②③④|
⑥④口⑨ |⑤⑥⑦⑧|
⑩口③⑤ |⑨⑩⑪⑫|
②口⑦⑪ |⑬---|

口口⑬⑬
口口口口
口口口口
口口口口
33
④②④口 |①--②|
口①③② |--③-|
口④②① |-④--|
①③③口 |⑤-⑥-|

口口口口
⑤口口⑥
⑥口口⑤
⑤口口⑥
34
口②④口 |①-②③|
⑧①口口 |-④⑤-|
口⑦①口 |⑥⑦⑧⑨|
⑥③⑤口 |⑩⑪⑫⑬|

口口口口
口⑨⑬⑫
口口⑪口
口口口⑩
35
②口④① |①-②③|
⑧⑦⑪⑫ |-④⑤-|
⑥⑨⑬⑩ |⑥⑦⑧⑨|
③①⑤口 |⑩⑪⑫⑬|
36
①②④口 |①-②③|
口⑦口口 |-④⑤-|
⑧⑨口口 |⑥⑦⑧⑨|
⑥③⑤① |⑩⑪⑫⑬|

口口口口
口口⑪口
口口⑬⑫
口口口⑩
37
①③①③ |①-②③|
⑤口⑨⑤ |-④⑤-|
口⑧口口 |⑥⑦⑧⑨|
⑥②④⑦ |----|
38
口②④口 |①-②③|
⑧①口口 |-④⑤-|
口⑦①口 |⑥⑦⑧⑨|
⑥③⑤口 |⑩⑪⑫⑬|

口口口口
口⑨⑬⑫
口口⑪口
口口口⑩
39
②口④① |①-②③|
⑧⑦⑪⑫ |-④⑤-|
⑥⑨⑬⑩ |⑥⑦⑧⑨|
③①⑤口 |⑩⑪⑫⑬|
40
①②④口 |①-②③|
口⑦口口 |-④⑤-|
⑧⑨口口 |⑥⑦⑧⑨|
⑥③⑤① |⑩⑪⑫⑬|

口口口口
口口⑪口
口口⑬⑫
口口口⑩
41
①③①③ |①-②③|
⑤⑥⑥⑤ |-④⑤-|
⑧⑨⑩⑪ |⑥-⑦-|
⑦②④⑦ |⑧⑨⑩⑪|
42
①口口< |①---|
口⑥口口 |②---|
口⑤口口 |③---|
④③②口 |④-⑤⑥|

⑤口口口
口口口口
口口口口
口口口口
43
口①<口 |①---|
口⑤②⑤ |②-③-|
口口③③ |④-⑤-|
⑥④②① |⑥-⑦-|

口②口口
⑦口<口
口口口口
口口口口
44
口⑤口口 |①---|
④口口口 |②---|
口口④口 |③---|
④③②① |④-⑤-|
45
⑤⑦⑥口 |①---|
口口③口 |②-③-|
口①口< |④-⑤-|
⑥④②① |⑥-⑦-|

口口口口
口口口口
口③口口
口口口口
46
口口口口 |①-②-|
口口>① |③-④-|
口口口② |⑤-⑥-|
口口③① |⑦-⑧-|

口口口口
口④<④
口⑥④口
口⑤口口

口口⑦口
口⑦口口
⑧口口口
⑦口口口
47
口口口口 |①-②-|
①口<口 |③-④-|
口口④② |⑤-⑥-|
口口③① |⑦-⑧-|

口⑤口
⑤口口口
⑧⑥口口
⑦⑤口口
48
口口①口 |①-②-|
口①口< |③-④-|
口⑥④② |⑤-⑥-|
口⑤③① |⑦-⑧-|

口口口口
口⑦口口
⑧口口口
⑦口口口
49
④①口② |①--②|
①口③④ |--③-|
⑤③②③ |④-⑤-|
口②①⑤ |⑥⑦⑧⑨|

口口⑥口
⑦口口口
口口⑧口
口⑨口口
50
②①口① |①--②|
⑤③②⑥ |--③-|
④⑥⑤③ |-④--|
⑤口④⑥ |⑤-⑥-|
51
①口口② |①-②-|
⑨③口口 |③④⑤-|
⑦口口④ |⑥⑦-⑧|
⑥⑤⑧口 |--⑨-|
52
②①口① |①--②|
⑤③②⑥ |--③-|
④⑥⑤③ |-④--|
⑤口④⑥ |⑤-⑥-|
53
①口口② |①-②-|
⑪③口⑫ |③④⑤-|
⑦⑨⑩④ |⑥⑦-⑧|
⑥⑤⑧口 |⑨⑩⑪⑫|
54
②①口① |①--②|
⑤③②⑥ |--③-|
④⑥⑤③ |-④--|
⑤口④⑥ |⑤-⑥-|
55
①口口② |①-②-|
⑨③口口 |③④⑤-|
⑦口口④ |⑥⑦-⑧|
⑥⑤⑧口 |--⑨-|
56
②①口① |①--②|
⑤③②⑥ |--③-|
④⑥⑤③ |-④--|
⑤口④⑥ |⑤-⑥-|
57
①口口② |①-②-|
⑨③口口 |③④⑤-|
⑦口口④ |⑥⑦-⑧|
⑥⑤⑧口 |--⑨-|
58
①②③④ |①-②-③-|
⑫口口⑤ |④-⑤-⑥-|
⑪口口⑥ |⑦-⑧-⑨-|
⑩⑨⑧⑦ |⑩-⑪-⑫-|
59
①②③④ |①-②-③-|
口④①⑤ |④-⑤-⑥-|
口⑨⑦⑥ |⑦-⑧⑨⑩-|
口⑩⑧⑦ |⑪-⑫⑬⑭-|

口⑬口口
⑭口⑪口
⑫口口口
⑪口口口
60
口>口① |①---|
口口口口 |②---|
口口②口 |③---|
口口口口 |④---|

口口口③
口口口口
口③口<
口口③④
61
口口口口 |①---|
口①口 |②---|
口①口口 |③---|
①②口口 |④---|

口③口<
口口③口
口口口口
口口③④
62
口①口口 |①---|
口>口① |②---|
口口口口 |③---|
①②口口 |④---|

口口口口
口口口③
口③口<
口口③④
63
口口口口 |①---|
口①口 |②---|
口①口口 |③-④-|
①②口口 |⑤-⑥-|

口③④口
口口③口
口⑤⑥口
口口③⑤
64
口口口口 |①---|
口①口< |②-③-|
口口口口 |④---|
①②口口 |⑤---|

口口口③
口③口口
口口口∧
口口④口

口口口⑤
口口口口
口口⑤口
口口口⑤
65
口口口口 |①---|
口口口口 |②---|
口①口< |③---|
①②口口 |④---|

口口口口
口③口
口③口口
口口③④
66
口口口口 |①---|
口①①< |②---|
口口口口 |③---|
①②③口 |④⑤⑥⑦|

口口口⑦
口④口⑥
口口口⑤
口口口④
67
③①②④ |①---|
口③口口 |②---|
口⑤⑥口 |③-④-|
⑤①②口 |⑤-⑥-|
68
口①①⑧ |①-②③|
⑤③②④ |④-⑤-|
口⑨口⑥ |⑥-⑦-|
⑦⑦⑧⑥ |⑧-⑨-|
69
⑧①①口 |①-②③|
④②③⑤ |④-⑤-|
⑥口⑨口 |⑥-⑦-|
⑥⑧⑦⑦ |⑧-⑨-|
70
口①①⑧ |①-②③|
⑤③②④ |④-⑤-|
口⑨口⑥ |⑥-⑦-|
⑦⑦⑧⑥ |⑧-⑨-|
71
⑧①①口 |①-②③|
④②③⑤ |④-⑤-|
⑥口⑨口 |⑥-⑦-|
⑥⑧⑦⑦ |⑧-⑨-|
72
口⑥⑤口 |①②③④|
⑧②③口 |⑤⑥⑦⑧|
⑨><① |⑨⑩⑪⑫|
④口⑦口 |⑬⑭⑮⑯|

⑬口口⑯
口口⑭口
⑫⑪⑩④
口⑮口⑫
73
口②③口 |①②③④|
口>口① |⑤⑥⑦⑧|
口口⑤口 |⑨⑩⑪⑫|
④口口口 |⑬⑭⑮⑯|

⑨口<口
⑧⑥⑩④
⑪口口口
口口⑦⑫

⑫⑬⑭口
口口口口
口口口⑯
口⑮口口
74
⑫⑧口① |①②③④|
口④⑤⑨ |⑤⑥⑦⑧|
⑩⑥③口 |⑨⑩⑪⑫|
②口⑦⑪ |⑬---|

口口⑬⑬
口口口口
口口口口
口口口口
75
④②④口 |①--②|
口①③② |--③-|
口④②① |-④--|
①③③口 |⑤-⑥-|

口口口口
⑤口口⑥
⑥口口⑤
⑤口口⑥
76
口②④口 |①-②③|
⑧①口口 |-④⑤-|
口⑦①口 |⑥⑦⑧⑨|
⑥③⑤口 |⑩⑪⑫⑬|

口口口口
口⑨⑬⑫
口口⑪口
口口口⑩
77
②口④① |①-②③|
⑧⑦⑪⑫ |-④⑤-|
⑥⑨⑬⑩ |⑥⑦⑧⑨|
③①⑤口 |⑩⑪⑫⑬|
78
①②④口 |①-②③|
口⑦口口 |-④⑤-|
⑧⑨口口 |⑥⑦⑧⑨|
⑥③⑤① |⑩⑪⑫⑬|

口口口口
口口⑪口
口口⑬⑫
口口口⑩
79
①③①③ |①-②③|
⑤口⑨⑤ |-④⑤-|
口⑧口口 |⑥⑦⑧⑨|
⑥②④⑦ |----|
80
口②⑤口 |①-②③|
口①口口 |④⑤⑥-|
④口①口 |⑦⑧⑨⑩|
口③⑥口 |⑪⑫⑬⑭|

口口口口
⑨⑩⑭⑬
口⑧⑫口
⑦口口⑪
81
②④⑤① |①-②③|
⑨⑧⑫⑬ |④⑤⑥-|
⑦⑩⑭⑪ |⑦⑧⑨⑩|
③①⑥口 |⑪⑫⑬⑭|
82
①⑨④⑧ |①②③④|
⑬⑤⑫⑯ |⑤⑥⑦⑧|
⑦⑮⑭⑩ |⑨⑩⑪⑫|
⑪③⑥② |⑬⑭⑮⑯|
83
⑤③①口 |①-②③|
⑨②口口 |-④⑤-|
④⑦⑧口 |⑥⑦⑧⑨|
⑤③①⑥ |----|
84
②①口① |①--②|
⑤③②⑥ |--③-|
④⑥⑤③ |-④--|
⑤口④⑥ |⑤-⑥-|
85
①口口② |①-②-|
⑨③口口 |③④⑤-|
⑦口口④ |⑥⑦-⑧|
⑥⑤⑧口 |--⑨-|
86
②①②① |①--②|
口③④② |--③-|
④①口③ |-④--|
口④③口 |⑤-⑥-|

⑥口口⑤
⑤口口⑥
口⑥⑤口
⑤口口⑥
最終更新:2022年04月07日 16:35