アットウィキロゴ
朧 (BEMANI SYMPHONY Arr.)
HHH×MM×ST × 浦木 裕太 + gaQdan

EXTREME

Level: 9.8
BPM: 149
Notes: 844

1
口口口口 |----|
口①口口 |----|
口口②口 |----|
口口口口 |①-②-|
2
②口④② |①---|
口⑤③口 |②-③④|
②口⑥② |----|
口①口口 |⑤-⑥-|
3
口口④口 |①---|
②⑤③口 |②-③④|
口口⑥口 |----|
口①口口 |⑤-⑥-|
4
口口⑦① |①---|
口⑥口口 |②-③④|
口④⑤② |--⑤-|
口③口口 |⑥-⑦-|
5
⑤口口口 |①-②-|
④⑥①口 |③-④⑤|
口②⑦口 |----|
口口③口 |⑥-⑦-|
6
口①④① |①---|
口⑤③口 |②-③④|
口①⑥① |----|
口②口口 |⑤-⑥-|
7
口口④口 |①---|
②⑤③口 |②-③④|
口口⑥口 |----|
口①口口 |⑤-⑥-|
8
⑤③⑧① |①-②-|
④⑦②口 |③-④⑤|
口口⑥口 |--⑥-|
口口口口 |⑦-⑧-|
9
⑤口口口 |①-②-|
④口①口 |③-④⑤|
口②口口 |--⑥-|
口口③口 |⑦-⑧-|

口口口口
口口口口
口⑧⑦⑥
口口口口
10
口①口① |①---|
口口①口 |----|
口口口口 |②-③-|
口口口口 |④-⑤-|

⑤④口口
②③口口
口口口口
口口口口
11
口口⑤口 |①-②③|
口⑥口② |④⑤⑥⑦|
⑦口③口 |⑧⑨⑩⑪|
①④口口 |⑫⑬⑭⑮|

口⑭口⑧
⑮口⑨口
口⑩口⑫
⑪口⑬口
12
①口①口 |①-②-|
口③④口 |③-④-|
口⑤②⑥ |⑤-⑥-|
口⑦口⑧ |⑦-⑧-|
13
口口口口 |①---|
口①口口 |②---|
①②①口 |③---|
口④③口 |--④-|
14
口③①口 |①---|
③①③① |--②-|
口口口口 |③-④⑤|
口口②口 |⑥-⑦-|

口口口④
口口口⑤
⑦口口⑥
口口口口
15
①口①口 |①---|
口①口口 |②---|
口口②口 |③---|
口③口口 |----|
16
口①口① |①-②-|
口④①③ |③-④-|
⑥②⑤口 |⑤-⑥-|
⑧口⑦口 |⑦-⑧-|
17
口口口口 |①---|
口口①口 |②---|
口①②① |③---|
口③④口 |--④-|
18
口⑤③⑤ |①---|
①③①③ |②---|
口①口口 |③---|
④②④口 |④-⑤-|
19
口口口口 |①---|
①口①⑤ |----|
②口⑥③ |②---|
口①④口 |③④⑤⑥|
20
口③③⑥ |①-②-|
②⑤口⑦ |③-④⑤|
口④口口 |⑥---|
口①口口 |⑦-⑧⑨|

口口口口
⑧口口口
⑨口口口
口口口口
21
②④口口 |①-②-|
⑧⑤口口 |③-④⑤|
口③⑦① |⑥---|
①口⑥③ |⑦-⑧-|
22
③⑤③⑤ |①-②-|
口④①⑥ |③-④-|
口②口口 |⑤---|
①⑥口口 |⑥---|
23
③口口口 |①-②-|
⑤②口口 |③-④⑤|
④口口① |-⑥⑦⑧|
①口口③ |⑨⑩⑪⑫|

口口口⑥
口口⑦⑩
口⑧⑪口
⑨⑫口口
24
②口⑤③ |①-②-|
③口④⑧ |③-④⑤|
⑥口口⑨ |⑥---|
⑦口①口 |⑦-⑧⑨|
25
口口⑤③ |①-②-|
口⑥④口 |③-④⑤|
口③②口 |⑥---|
口①口① |⑦-⑧-|

口⑦口口
口口口口
口口⑧口
口口口口
26
②⑤③① |①-②-|
口④④⑤ |③-④-|
①③口口 |⑤-⑥-|
口⑥②⑥ |⑦-⑧-|

口口口⑦
⑦口口口
口口口口
⑧口⑧口
27
④②①④ |①---|
口④④③ |②-③-|
④②①④ |④--⑤|
口口口口 |⑥⑦⑧⑨|

口口口口
口口口口
口⑨口口
⑦⑤⑥⑧
28
口口口口 |①--②|
口口②口 |--③-|
口口①③ |④⑤⑥⑦|
口口口口 |⑧⑨⑩⑪|

口④⑥口
⑤⑦口⑨
⑧口⑩口
口⑪口口
29
①口④① |①---|
⑥口③⑥ |②-③④|
口②⑤口 |----|
口口口口 |⑤-⑥-|
30
⑤口④⑤ |①---|
口⑥③口 |②-③④|
口②⑦口 |⑤---|
①口口① |⑥-⑦-|
31
口口④口 |①---|
①⑥③① |②-③④|
口②⑤口 |--⑤-|
口⑦口口 |⑥-⑦-|
32
口②③口 |①-②-|
①⑥口① |③-④⑤|
④③口④ |----|
⑤⑦②⑤ |⑥-⑦-|
33
②①口① |①---|
①口①② |②-③④|
口口口④ |----|
口口口③ |⑤-⑥-|

口口口口
口⑤⑥口
口口口口
口口⑤口
34
②口口① |①---|
口④口② |②-③④|
口③口口 |----|
口①口② |⑤-⑥-|

口口⑤口
口口口口
口口口口
口⑤⑥口
35
②⑤口口 |①-②-|
①④①⑦ |③-④⑤|
⑦口口⑧ |--⑥-|
③口⑥③ |⑦-⑧-|
36
①⑤③② |①-②-|
①口③⑤ |③-④⑤|
⑤④④口 |--⑥-|
②③⑤① |⑦-⑧-|

口口口⑧
口⑦口口
口口口⑥
口口口口
37
①口①口 |①---|
②④口④ |②---|
③口③口 |③-④-|
口口口口 |⑤-⑥-|

⑥口⑥口
口口口口
口口口口
口⑤口⑤
38
④口口口 |①---|
⑥②口③ |----|
口①⑤① |②③④⑤|
①口①口 |⑥-⑦⑧|

口口口口
口口⑧口
口⑦口口
口口口口
39
口①口口 |①---|
口口④口 |②---|
口口口③ |③---|
口口②口 |④---|
40
①④口① |①-②-|
口③⑤口 |③-④-|
③口口⑤ |⑤-⑥-|
口⑥②口 |⑦-⑧-|

口口口⑧
口口口⑦
口口⑦口
口口口口
41
②口③口 |①---|
口口口⑤ |②---|
口②口③ |③---|
①④①⑤ |④-⑤-|
42
⑦④②① |①---|
④口①⑤ |②-③-|
口③口⑥ |④-⑤⑥|
口⑧口⑦ |⑦-⑧-|
43
口②口③ |①---|
口口口口 |②---|
②口③口 |③---|
①口①口 |④-⑤-|

口口口口
口口口口
口口口口
口⑤④口
44
口⑤③④ |①-②-|
⑤口口③ |③-④-|
口②口口 |⑤-⑥-|
①口⑥口 |⑦-⑧-|

⑦口口口
口⑦口口
口⑧口口
口口口口
45
口③口② |①---|
⑤口口口 |②---|
③口②口 |③---|
⑤①④① |④-⑤-|
46
①②④⑤ |①---|
口①⑤④ |②-③-|
⑥口③口 |④---|
口⑥口口 |⑤-⑥-|
47
②①口③ |①---|
①⑦④口 |②---|
⑧⑤⑨口 |③④⑤⑥|
⑥⑩口口 |⑦⑧⑨⑩|
48
口③③⑥ |①-②-|
②⑤口⑦ |③-④⑤|
口④口口 |⑥---|
口口①口 |⑦-⑧⑨|

口口口口
⑧口口口
⑨口口口
口口口口
49
②④口口 |①-②-|
⑧⑤口口 |③-④⑤|
口③⑦① |⑥---|
①口⑥③ |⑦-⑧-|
50
③⑤③⑤ |①-②-|
口④①⑥ |③-④-|
口②口口 |⑤---|
①⑥口口 |⑥---|
51
③口口口 |①-②-|
⑤②口口 |③-④⑤|
④口口① |-⑥⑦⑧|
①口口③ |⑨⑩⑪⑫|

口口口⑥
口口⑦⑩
口⑧⑪口
⑨⑫口口
52
②口⑤③ |①-②-|
③口④⑧ |③-④⑤|
⑥口口⑨ |⑥---|
⑦口①口 |⑦-⑧⑨|
53
口⑦⑤③ |①-②-|
口⑥④口 |③-④⑤|
口③②口 |⑥---|
口①⑧① |⑦-⑧-|
54
⑤口②④ |①-②-|
口③④口 |③-④-|
①⑤⑥② |⑤-⑥-|
③①口⑥ |⑦-⑧-|

口⑦⑧口
⑦口口⑧
口口口口
口口口口
55
④口口④ |①---|
口④④口 |②-③-|
④口口④ |④---|
②①①③ |⑤⑥⑦⑧|

口口口口
口口口口
口⑧⑦口
口⑥⑤口
56
口②②口 |①---|
①③口① |--②-|
口口④口 |----|
口口口口 |③-④-|
57
①口④① |①---|
口⑤③口 |②-③④|
①口⑥① |----|
口②口口 |⑤-⑥-|
58
口口④口 |①---|
②⑤③口 |②-③④|
口口⑥口 |----|
口①口口 |⑤-⑥-|
59
口口⑦① |①---|
口⑥口口 |②-③④|
口④⑤② |--⑤-|
口③口口 |⑥-⑦-|
60
⑤口口口 |①-②-|
④⑥①口 |③-④⑤|
口②⑦口 |----|
口口③口 |⑥-⑦-|
61
口②④口 |①---|
②⑤③口 |②-③④|
口口⑥口 |----|
口①口口 |⑤-⑥-|
62
②口④口 |①---|
口⑤③口 |②-③④|
口②⑥口 |----|
口①口口 |⑤-⑥-|
63
⑤③⑧⑤ |①-②-|
④⑦②④ |③-④⑤|
口①⑥① |--⑥-|
口口口口 |⑦-⑧-|
64
⑤③口② |①-②-|
③口②⑤ |③-④⑤|
口口口口 |-⑥⑦⑧|
④①①④ |⑨-⑩-|

口口口口
口口⑩口
口⑥⑦口
口⑧⑨口
65
②④口① |①---|
①③⑥② |②-③④|
①口口口 |----|
口⑤⑤② |⑤-⑥-|
66
②④口① |①---|
①③口② |②-③④|
口口口口 |----|
口口口② |⑤-⑥-|

口口⑥口
⑤口口口
口口口口
口⑥⑤口
67
口④⑥② |①---|
口③口口 |②-③④|
⑥②⑤② |--⑤-|
①⑦⑦① |⑥-⑦-|
68
①③口② |①-②-|
⑤⑥③⑤ |③-④⑤|
口④④① |----|
②⑦口③ |⑥-⑦-|
69
②①口① |①---|
口口①② |②-③④|
口口口④ |----|
口口口③ |⑤-⑥-|

口口口口
口⑤⑥口
口口口口
口口⑤口
70
②口口① |①---|
口口口② |②-③④|
④口口口 |----|
③①口② |⑤-⑥-|

口口⑤口
口口口口
口口口口
口⑤⑥口
71
口①口② |①-②-|
⑤②①⑤ |③-④⑤|
口④④口 |--⑥-|
③口口③ |⑦-⑧-|

口⑦⑧口
口口口口
⑦口口⑧
口口⑥口
72
①⑤口② |①-②-|
③口③⑤ |③-④⑤|
⑤④④口 |----|
②③⑤① |⑥-⑦-|

⑦口口口
口⑥口口
口口口口
口口口口
73
口口③② |①-②-|
③口⑤口 |③-④⑤|
口口④① |--⑥-|
③①口① |⑦-⑧-|

口⑥口口
口口口口
⑧口口口
口⑦⑦口
74
①⑧⑥③ |①-②-|
③⑤⑦① |③-④⑤|
口④口口 |--⑥-|
③⑦⑧② |⑦-⑧-|
75
③⑦口② |①-②-|
口口⑤③ |③-④⑤|
③⑥④⑦ |--⑥-|
①⑧口① |⑦-⑧-|
76
①⑥③⑥ |①-②-|
①口口③ |③-④⑤|
⑥④⑤口 |⑥---|
②口②口 |⑦-⑧-|

口口口口
口口⑦口
口口口口
口口⑧口
77
①③①③ |①-②-|
⑤①口① |③-④⑤|
④口口② |--⑥-|
口口口口 |⑦-⑧-|

口口口口
口⑧⑦口
口口口口
口⑦口⑥
78
①口口② |①-②-|
③口⑤③ |③-④⑤|
口口④口 |--⑥-|
③口①口 |⑦-⑧-|

口⑦口口
口口口口
口⑥口口
口⑧⑦口
79
③口口③ |①-②-|
⑤②口⑤ |③-④⑤|
口④④口 |--⑥-|
①口口① |⑦-⑧-|

口口⑦口
口口口口
口口口⑦
⑧⑥口⑧
80
③②⑤③ |①-②-|
⑤③①口 |③-④⑤|
①④④⑤ |--⑥-|
口⑤①口 |⑦-⑧-|

口口口口
口口口口
⑧口口口
⑥口⑦口
81
①口口① |①---|
口口⑤⑥ |--②-|
口口④③ |③-④-|
口②口口 |⑤-⑥-|
82
口口口口 |①---|
口④口口 |----|
③口口口 |--②-|
口②①口 |③-④-|
83
①口口口 |(125)①---|
口口⑤⑥ |--②-|
口②④③ |③-④-|
口口口口 |⑤-⑥-|
84
口口口口 |(85)①-②-|
口口⑤口 |③-④-|
口③④口 |⑤---|
口②①口 |----|
最終更新:2022年04月07日 16:41