アットウィキロゴ
VIKING SHIP
BEMANI Sound Team "劇団レコード"

BASIC

Level: 3
BPM: 130
Notes: 254

1
口口口口 |----|
口口口口 |----|
口口口口 |----|
口口口口 |----|
2
口口口口 |①---|
口①①口 |----|
口②②口 |②---|
口口口口 |----|
3
口口口口 |①---|
①口口① |----|
口口口口
口口口口

②口口②
③口口③
口口口口 |②---|
口口口口 |③---|
4
口口口口 |①---|
口①①口 |----|
口②②口 |②---|
口口口口 |----|
5
口口口口 |①---|
口口口口 |----|
①口口①
口口口口

口口口口
口口口口
③口口③ |②---|
②口口② |③---|
6
口口口口 |①---|
口①①口 |----|
口②②口 |②---|
口口口口 |----|
7
口口口口 |①---|
①口口① |----|
口口口口
口口口口

②口口②
③口口③
口口口口 |②---|
口口口口 |③---|
8
口口口口 |①---|
口①①口 |----|
口②②口 |②---|
口口口口 |----|
9
口口口口 |①---|
②②①① |②---|
口口口口 |----|
口口口口 |----|
10
口口口口 |①---|
口口口① |②---|
④口②口 |③---|
口③口口 |④---|
11
口①①口 |①---|
口口口口 |----|
口②②口 |②---|
口口口口 |----|
12
口口口口 |①---|
①口口口 |②---|
口②口④ |③---|
口口③口 |④---|
13
②①①② |①---|
口口口口 |----|
口口口口 |②---|
口口口口 |----|
14
口口口口 |①---|
口口口① |②---|
④口②口 |③---|
口③口口 |④---|
15
口①①口 |①---|
口口口口 |----|
口②②口 |②---|
口口口口 |----|
16
口口口口 |①---|
口①①口 |----|
口口口口 |②---|
口②②口 |----|
17
口口口口 |①---|
②②①① |②---|
口口口口 |----|
口口口口 |----|
18
口口口口 |①---|
口③②① |②---|
口口口口 |③---|
口口口口 |----|
19
①②③口 |①---|
口口口口 |②---|
口口口口 |③---|
口口口口 |----|
20
①口口口 |①---|
②口口口 |②---|
③口口口 |③---|
口口口口 |----|
21
口口口口 |①---|
口①①口 |----|
口口口口 |----|
口口口口 |----|
22
口口口口 |①---|
①②③口 |②---|
口口口口 |③---|
口口口口 |----|
23
口③②① |①---|
口口口口 |②---|
口口口口 |③---|
口口口口 |----|
24
口口口① |①---|
口口口② |②---|
口口口③ |③---|
口口口口 |----|
25
口口口口 |①---|
口①①口 |②---|
口②②口 |③---|
口③③口 |----|
26
①口口口 |①---|
口③③口 |②---|
口②口口 |③---|
口口口口 |----|
27
口口口① |①---|
口③③口 |②---|
口口②口 |③---|
口口口口 |----|
28
口口口口 |①---|
①口口口 |②---|
口③③口 |③---|
口②口口 |----|
29
口口口口 |①---|
口口口① |②---|
口③③口 |③---|
口口②口 |----|
30
口口口① |①---|
口口③③ |②---|
口口口② |③---|
口口口口 |----|
31
①口口口 |①---|
③③口口 |②---|
②口口口 |③---|
口口口口 |----|
32
口口口口 |①---|
口口口① |②---|
口口③③ |③---|
口口口② |----|
33
口口口口 |①---|
①口口口 |②---|
③③口口 |③---|
②口口口 |----|
34
①口口① |①---|
②口口② |②---|
③口口③ |③---|
④口口④ |④---|
35
③③①① |①---|
口口口口 |②---|
口②④口 |③---|
口口口口 |④---|
36
③③①① |①---|
④④口口 |②---|
口②口口 |③---|
口口口口 |④---|
37
口口口口 |①---|
③③①① |②---|
口口口口 |③---|
口②④口 |④---|
38
口口口口 |①---|
口口①① |②---|
口口口口
口②口口

口口口口
口④④口
口③③口 |③---|
口口口口 |④---|
39
①①③③ |①---|
口口口口 |②---|
口④②口 |③---|
口口口口 |④---|
40
①①③③ |①---|
口口④④ |②---|
口口②口 |③---|
口口口口 |④---|
41
口口口口 |①---|
①①③③ |②---|
口口口口 |③---|
口④②口 |④---|
42
口口口口 |①---|
①①口口 |②---|
口口口口
口口②口

口口口口
口④④口
口③③口 |③---|
口口口口 |④---|
43
②口口① |①---|
口口口口 |----|
口口口口 |②---|
口口口口 |----|
44
口②②口 |①---|
口③③① |----|
口口口口 |②---|
口口口口 |③---|
45
口口口口 |①---|
②口口口 |----|
口①①口 |②---|
口口口口 |----|
46
口口口口 |①---|
口③③① |----|
②口口口 |②---|
口口口口 |③---|
47
口口口口 |①---|
口口口口 |----|
口口口② |②---|
口①①口 |----|
48
口口口口 |①---|
口②②口 |----|
①③③口 |②---|
口口口口 |③---|
49
口口口口 |①---|
口口口口 |----|
②口口② |②---|
口①①口 |----|
50
①口口① |①---|
口②②口 |②---|
口②②口 |----|
口口口口 |----|
51
口口口口 |①---|
口口口口 |②---|
口口口口 |③---|
④③②① |④---|
52
口口口口 |①---|
口口口口 |②---|
①②③④ |③---|
口口口口 |④---|
53
口口口口 |①---|
④③②① |②---|
口口口口 |③---|
口口口口 |④---|
54
①②③④ |①---|
口口口口 |②---|
口口口口 |③---|
口口口口 |④---|
55
①口口口 |①---|
①口口口 |②---|
④③②口 |③---|
口口口口 |④---|
56
口口口① |①---|
口口口① |②---|
口②③④ |③---|
口口口口 |④---|
57
①口口② |①---|
①口口② |②---|
口③③口 |③---|
口③③口 |----|

accuracy: 100%
最終更新:2022年07月24日 01:32