アットウィキロゴ
VIKING SHIP
BEMANI Sound Team "劇団レコード"

ADVANCED

Level: 7
BPM: 130
Notes: 414

1
口口口口 |----|
口口口口 |----|
口口口口 |----|
口口口口 |----|
2
②口口口 |①---|
①口口① |②---|
口口口口
口口口口

口口口口
⑤口⑥口
口③④口 |③-④---|
口口口口 |⑤---⑥-|
3
口④④口 |①---②-|
口①口口 |--③---|
③⑤⑤② |④---|
口口口口 |⑤---|
4
②口口口 |①---|
①口口① |②---|
口口口口
口口口口

口口口口
⑤口⑥口
口③④口 |③-④---|
口口口口 |⑤---⑥-|
5
口口口口 |①---②-|
口①口口 |--③---|
③口口②
口口口口

口口口口
口⑤⑤口
口口口口 |④---|
口④④口 |⑤---|
6
口口口② |①---|
①口口① |②---|
口口口口
口口口口

口口口口
口⑥口⑤
口④③口 |③-④---|
口口口口 |⑤---⑥-|
7
口④④口 |①---②-|
口口①口 |--③---|
②⑤⑤③ |④---|
口口口口 |⑤---|
8
口口口口 |①---|
口口口口 |----|
①口口① |②---|
②口口② |----|
9
口②①口 |①---|
口①②口 |②---|
口口口口 |----|
口口口口 |----|
10
②②口口 |①---|
口口①① |②---|
口口口口
口口口口

口口口口
⑤口⑥口
口③④口 |③-④---|
口口口口 |⑤---⑥-|
11
口④④口 |①---②-|
③①口② |--③---|
③⑤⑤② |④---|
口口口口 |⑤---|
12
②②口口 |①---|
口口①① |②---|
口口口口
口口口口

口口口口
⑤口⑥口
口③④口 |③-④---|
口口口口 |⑤---⑥-|
13
口口口口 |①---②-|
口①口口 |--③---|
③⑤⑤② |④---|
③④④② |⑤---|
14
口口②② |①---|
①①口口 |②---|
口口口口
口口口口

口口口口
口⑥口⑤
口④③口 |③-④---|
口口口口 |⑤---⑥-|
15
口④④口 |①---②-|
②口①③ |--③---|
②⑤⑤③ |④---|
口口口口 |⑤---|
16
口口口口 |①---|
口口口口 |----|
①口口① |②---|
②口口② |----|
17
口②①口 |①---|
口①②口 |②---|
口口口口 |----|
口口口口 |----|
18
口②②口 |①---|
口口口口 |②---|
口①①口
口口口口

口口口⑤
口④③口
口⑥口口 |③-④---|
口口口口 |⑤---⑥-|
19
口口口口 |①---|
②⑥口② |②---③-|
⑤口①口 |④---|
口③④口 |--⑤-⑥-|
20
口④①⑤ |①---|
口口③⑤ |②---③-|
口⑥口口 |④---|
口②口口 |⑤---⑥-|
21
口口口口 |①---|
口口口口 |----|
口口口口 |----|
②口①② |②---|
22
口口口口 |①---|
②口口② |②---|
①口口①
口口口口

口④③口
口⑥⑤⑦
口口口口 |③-④-⑤-|
口口口口 |⑥---⑦-|
23
③口口① |①---②-|
②⑦④⑥ |③---④-|
口⑤口口 |⑤---|
口口口口 |⑥---⑦-|
24
②口①口 |①---|
口口口口 |②---|
口④③口 |③-④-⑤-|
口⑥⑤口 |⑥---|
25
口口口口 |①---|
口口①① |②---|
②②口口 |③---|
口口③③ |----|
26
①①口口 |①---|
口③口③ |②---|
口口口口 |③---|
口②②口 |----|
27
口口①① |①---|
③口③口 |②---|
口口口口 |③---|
口②②口 |----|
28
①①口口 |①---|
口口②② |②---|
③③口口 |③---|
口口④④ |④---|
29
口口口口 |①---|
口①②口 |②---|
口②①口 |③---|
口③③口 |----|
30
口口①① |①---|
③口③口 |②---|
口口口口 |③---|
口②②口 |----|
31
①①口口 |①---|
口③口③ |②---|
口口口口 |③---|
口②②口 |----|
32
口口①① |①---|
②②口口 |②---|
口口③③ |③---|
④④口口 |④---|
33
④口口④ |①---|
口②①口 |②---|
口①②口 |③---|
③口口③ |④---|
34
④口口④ |①---|
口③③口 |②---|
口②②口 |③---|
口①①口 |④---|
35
口口口口 |①-②-③-|
①口⑨⑤ |④---|
口②⑥口 |⑤-⑥-⑦-|
⑧⑦③④ |⑧---⑨-|
36
口口口④ |①-②---|
③口口口 |③---④-|
口①口口
口口②口

口口口口
口口⑤⑦
口⑥⑧口 |⑤-⑥---|
口⑨口口 |⑦-⑧-⑨-|
37
⑧⑦③④ |①-②-③-|
口②⑥口 |④---|
①口口⑤ |⑤-⑥-⑦-|
口口口口 |⑧---|
38
⑤口①⑤ |①-②-③-|
口②口口 |④---|
⑥口③⑥ |⑤---|
口④口口 |⑥---|
39
口口口口 |①-②-③-|
⑤⑨口① |④---|
口⑥②口 |⑤-⑥-⑦-|
④③⑦⑧ |⑧---⑨-|
40
④口口口 |①-②---|
口口口③ |③---④-|
口口①口
口②口口

口口口口
⑦⑤口口
口⑧⑥口 |⑤-⑥---|
口口⑨口 |⑦-⑧-⑨-|
41
④③⑦⑧ |①-②-③-|
口⑥②口 |④---|
⑤口口① |⑤-⑥-⑦-|
口口口口 |⑧---|
42
⑤①口⑤ |①-②-③-|
⑥口②⑥ |④---|
口③口口 |⑤---|
口口④口 |⑥---|
43
口口口口 |①---|
口①①口 |----|
口①①口 |②---|
口②②口 |----|
44
①口口① |①---|
口口口口 |----|
口口口口
口口口口

③③③③
②②②②
口口口口 |②---|
口口口口 |③---|
45
口口口口 |①---|
口口口口 |----|
①①①① |②---|
口②②口 |----|
46
口口口口 |①---|
①①①① |----|
口口口口
口口口口

口口口口
③口口③
口口口口 |②---|
口②②口 |③---|
47
口口口口 |①---|
口①①口 |----|
口①①口 |②---|
口②②口 |----|
48
口口①口 |①---|
口口口① |----|
口口口口
口口口口

口口口口
③③③③
②②②② |②---|
口口口口 |③---|
49
口口口口 |①---|
②口口② |----|
②口口② |②---|
①①①① |----|
50
口②②口 |①---|
口②②口 |②---|
口①①口 |----|
口①①口 |----|
51
口口④④ |①---|
口口③③ |②---|
口口②② |③---|
口口①① |④---|
52
④④口口 |①---|
③③口口 |②---|
②②口口 |③---|
①①口口 |④---|
53
④④④④ |①---|
口③③③ |②---|
口口②② |③---|
口口口① |④---|
54
④④④④ |①---|
③③③口 |②---|
②②口口 |③---|
①口口口 |④---|
55
口口口口 |①-②-③-|
⑥口口⑤ |④---|
⑤②①⑥ |⑤---|
口④③口 |⑥---|
56
口口口口 |①-②-③-|
⑤口口⑥ |④---|
⑥①②⑤ |⑤---|
口③④口 |⑥---|
57
①口口② |①---|
口③③口 |②---|
口③③口 |③---|
②口口① |----|

accuracy: 100%
最終更新:2022年07月24日 01:46