アットウィキロゴ
VIKING SHIP
BEMANI Sound Team "劇団レコード"

EXTREME

Level: 9.7
BPM: 130
Notes: 646

1
口口口口 |----|
口口口口 |----|
口口口口 |----|
①口口① |①---|
2
口口⑤口 |①---|
①口口① |②---|
口③④⑥ |③-④---|
口口②口 |⑤---⑥-|
3
口①口口 |①---②-|
①口②口 |--③---|
口口口口
③③口②

口口④④
口口口口
口⑥⑦口 |④---|
口口⑤⑤ |⑤-⑥-⑦-|
4
口⑤口口 |①---|
①口口① |②---|
⑥④③口 |③-④---|
口②口口 |⑤---⑥-|
5
口口①口 |①---②-|
口②口① |--③-④-|
口④口③
②口③口

口⑥⑥口
口口口口
口口⑤口 |⑤---|
口口口口 |⑥---|
6
口口⑤口 |①---|
①口口① |②---|
口③④⑥ |③-④---|
口口②口 |⑤---⑥-|
7
口①口口 |①---②-|
①口口② |--③---|
口口口口
③③②口

口口④④
口口口口
口⑥⑦口 |④---|
口口⑤⑤ |⑤-⑥-⑦-|
8
口口口口 |①---|
①②③① |--②-③-|
口口口口
口口口口

口口口口
⑤口口⑥
④口口④ |④---⑤-|
口⑤⑥口 |--⑥---|
9
③①①③ |①-②---|
口口口口 |③---|
③②②③ |----|
口口口口 |----|
10
②口①① |①---|
②口口口 |②---|
口口口口
口口口口

口口⑤口
⑥③口⑤
口口口口 |③-④---|
口口④口 |⑤---⑥-|
11
口①口① |①---②-|
口口③口 |--③---|
④⑥③④ |④---|
⑤②⑦② |⑤-⑥-⑦-|
12
①①口② |①---|
口口口② |②---|
口口口口
口口口口

口⑤口口
⑤口③⑥
口口口口 |③-④---|
口④口口 |⑤---⑥-|
13
①口①③ |①---②-|
口⑥④⑨ |--③-④-|
口⑤口⑧ |⑤-⑥-⑦-|
②⑦②⑩ |⑧-⑨-⑩-|
14
②口①① |①---|
②口口口 |②---|
口口口口
口口口口

口口⑤口
⑥③口⑤
口口口口 |③-④---|
口口④口 |⑤---⑥-|
15
口①口① |①---②-|
口口③口 |--③---|
④⑥③④ |④---|
⑤②⑦② |⑤-⑥-⑦-|
16
①①⑥⑥ |①---②-|
④口口⑨ |③-④-⑤-|
③⑦②⑧ |⑥---⑦-|
⑤口口⑩ |⑧-⑨-⑩-|
17
③③③③ |①-②---|
口②①口 |③---|
口口口口
口①②口

口口口口
④口口⑦
口⑤⑧口 |④-⑤-⑥-|
口⑨⑥口 |⑦-⑧-⑨-|
18
口⑥口② |①---|
口③口④ |②---③-|
①口⑤① |④-⑤---|
口⑦口口 |⑥---⑦-|
19
④口⑥口 |①②③-④-|
①②③口 |⑤---⑥-|
口口⑤口
口口口口

口口口口
口口⑨口
⑦口口⑧ |⑦---|
口口口口 |--⑧-⑨-|
20
④①③① |①---|
⑤⑨口⑦ |②---③-|
⑥口口口 |④⑤⑥-⑦-|
口⑧②口 |⑧---⑨-|
21
口口口口 |①---②-|
⑤口口④ |③-④-⑤-|
口③②口
口口口①

口⑦⑥口
口⑨⑧口
口⑪⑩口 |⑥-⑦-⑧-|
口口口口 |⑨-⑩-⑪-|
22
①口③① |①---|
⑧④口口 |②---③-|
②口⑤口 |④-⑤-⑥-|
口⑥⑦口 |⑦---⑧-|
23
口①④口 |①---②-|
口③⑩⑤ |③-④-⑤-|
⑨口②口 |⑥⑦⑧---|
口⑥⑦⑧ |⑨---⑩-|
24
③①④① |①---|
口③⑥口 |②---③-|
口⑦口② |④-⑤-⑥-|
口⑤②⑧ |⑦---⑧-|
25
口③④口 |①-②-③-|
②口⑩⑤ |④-⑤-⑥-|
①口⑨⑥ |⑦---|
⑧⑦⑦⑧ |⑧-⑨-⑩-|
26
①②口口 |①---②-|
口口口③ |③---④-|
①②口口
口④口口

口口⑧⑧
⑩⑦口口
口⑨⑥口 |⑤-⑥-⑦-|
口口口⑤ |⑧-⑨-⑩-|
27
口口口⑤ |①---②③|
口④③② |④-⑤-⑥-|
口口⑥口
口①①口

⑦口⑦口
口⑩口口
口⑨口口 |⑦---|
⑧口⑧口 |⑧-⑨-⑩-|
28
口口②① |①---②-|
③口口口 |③---④-|
口口②①
口口④口

⑧⑧口口
口口⑦⑩
口⑥⑨口 |⑤-⑥-⑦-|
⑤口口口 |⑧-⑨-⑩-|
29
④口③口 |①---②-|
口口口口 |③-④-⑤-|
口⑤口口
②①①②

口口口口
口口⑨口
口口⑧⑥ |⑥---|
口⑦口⑦ |⑦-⑧-⑨-|
30
①②口口 |①---②-|
口口口③ |③---④-|
①②口口
口④口口

口口⑧⑧
⑩⑦口口
口⑨⑥口 |⑤-⑥-⑦-|
口口口⑤ |⑧-⑨-⑩-|
31
口口口⑤ |①---②③|
口④③② |④-⑤-⑥-|
口口⑥口
口①①口

⑦口⑦口
口⑩口口
口⑨口口 |⑦---|
⑧口⑧口 |⑧-⑨-⑩-|
32
口口②① |①---②-|
③口口口 |③---④-|
口口②①
口口④口

⑧⑧口口
口口⑦⑩
口⑥⑨口 |⑤-⑥-⑦-|
⑤口口口 |⑧-⑨-⑩-|
33
⑧口口⑪ |①---②-|
⑦⑥⑨⑩ |③-④-⑤-|
③④⑤口 |⑥-⑦-⑧-|
②①①② |⑨-⑩-⑪-|
34
口口口口 |①-②-③-|
③口⑥口 |④-⑤-⑥-|
②口⑤口
①④④①

⑦口口⑦
口⑪口口
⑩口⑫口 |⑦-⑧-⑨-|
⑨口口⑧ |⑩-⑪-⑫-|
35
④①⑦⑩ |①-②-③-|
①⑧②⑦ |④-⑤-⑥-|
⑦⑥⑫① |⑦-⑧-⑨-|
⑪⑨③⑤ |⑩-⑪-⑫-|
36
口①口⑥ |①-②③④-|
①⑤②口 |⑤---⑥-|
口③口①
口口④口

⑦口口口
⑧口口口
⑨口⑫口 |⑦-⑧-⑨-|
⑩⑪口口 |⑩-⑪-⑫-|
37
⑦①⑦① |①-②-③-|
④⑧②⑩ |④-⑤-⑥-|
⑦⑥⑫① |⑦-⑧-⑨-|
⑪⑨③⑤ |⑩-⑪-⑫-|
38
口①口① |①-②③④-|
口口②⑥ |⑤-⑥-⑦-|
⑤③口①
口口④⑦

⑧口口口
⑧口⑩口
口⑪口⑨ |⑧---|
口口口口 |⑨-⑩-⑪-|
39
⑩⑦①④ |①-②-③-|
⑦②⑧① |④-⑤-⑥-|
①⑫⑥⑦ |⑦-⑧-⑨-|
⑤③⑨⑪ |⑩-⑪-⑫-|
40
⑥口①口 |①-②③④-|
口②⑤① |⑤---⑥-|
①口③口
口④口口

口口口⑦
口口口⑧
口⑫口⑨ |⑦-⑧-⑨-|
口口⑪⑩ |⑩-⑪-⑫-|
41
①⑦①⑦ |①-②-③-|
⑩②⑧④ |④-⑤-⑥-|
①⑫⑥⑦ |⑦-⑧-⑨-|
⑤③⑨⑪ |⑩-⑪-⑫-|
42
①口①口 |①-②③④-|
⑥②口口 |⑤-⑥-⑦-|
①口③⑤
⑦④口口

⑨口口⑧
口口口⑧
口口口口 |⑧---|
口口口⑨ |⑨---|
43
口口口口 |①---|
口①①口 |----|
口①①口 |②---|
②口②口 |----|
44
③③②② |①---|
口①口① |----|
③③②② |②---|
口口口口 |③---|
45
口口口口 |①---|
①①口口 |----|
口口口口 |②---|
①①②② |----|
46
①口③① |①---|
口口口③ |----|
③①①② |②---|
口③②口 |③---|
47
口口口口 |①---|
口①①口 |----|
口①①口 |②---|
口②口② |----|
48
口口①口 |①---|
①口口口 |----|
口口口口
口口口口

②②③③
口口口口
②②③③ |②---|
口口口口 |③---|
49
口口口口 |①---|
口口①① |----|
口口口口
口口①①

口口口口
口口口③
②②口口 |②---|
②②口口 |③---|
50
③①②③ |①-②---|
口③③口 |③---|
③②①③
口口口口

口口口口
④⑨⑧⑦
口口口口 |④-⑤-⑥-|
⑤口口⑥ |⑦-⑧-⑨-|
51
口②①④ |①---|
②口③口 |②---|
口①④① |③---|
③④②③ |④---|
52
①②①口 |①---|
②口口口 |②---|
口①口口
口口口②

口口④③
口③口④
口口口口 |③---|
口③④口 |④---|
53
①口口⑤ |①---|
①②⑥⑤ |②-③-④-|
①⑦③⑤ |⑤---|
①④⑧⑤ |⑥-⑦-⑧-|
54
①口口口 |①---|
①②口口 |②-③-④-|
①口③口
①④口口

口口口⑤
⑥口⑦⑤
口⑧口⑤ |⑤---|
口口口⑤ |⑥-⑦-⑧-|
55
④④①口 |①-②-③-|
口口口口 |④---|
②口③口
④④①口

口口口⑤
口⑨⑥口
⑧口⑩口 |⑤-⑥-⑦-|
口口⑦⑤ |⑧-⑨-⑩-|
56
口①④④ |①-②-③-|
口口口口 |④---|
口③口②
口①④④

⑤口口口
口⑥⑨口
口⑩口⑧ |⑤-⑥-⑦-|
⑤⑦口口 |⑧-⑨-⑩-|
57
⑥②③⑥ |①-②-③-|
①⑤⑤④ |④---⑤-|
⑥口口⑥ |⑥---|
口⑤⑤口 |----|

accuracy: 100%
最終更新:2022年07月24日 02:10