アットウィキロゴ
December in Strasbourg
nana(Sevencolors) feat. Mana

BASIC

Level: 3
BPM: 115
Notes: 194

1
口口口口 |----|
口口口口 |----|
口口口口 |----|
口口口口 |----|
2
口口口① |①---|
口口口口 |----|
口口口口 |----|
口口口口 |----|
3
口口口口 |①---|
口口①口 |----|
口口口口 |----|
口口口口 |----|
4
口口口口 |①---|
口口口口 |----|
口①口口 |----|
口口口口 |----|
5
口口口口 |①---|
口口口口 |----|
口口口口 |----|
①口口口 |----|
6
口口口口 |----|
口口口口 |①---|
口①口③ |②---|
口口②口 |③---|
7
口口口口 |----|
口口口口 |①---|
口③口① |②---|
口口②口 |③---|
8
口口口口 |----|
口口口口 |①---|
①口③口 |②---|
口②口口 |③---|
9
口口口口 |----|
口口口口 |①---|
③口①口 |②---|
口②口口 |③---|
10
口口口口 |----|
口①口③ |①---|
口口②口 |②---|
口口口口 |③---|
11
口口口口 |----|
口③口① |①---|
口口②口 |②---|
口口口口 |③---|
12
口口口口 |----|
①口③口 |①---|
口②口口 |②---|
口口口口 |③---|
13
口口口口 |----|
③口①口 |①---|
口②口口 |②---|
口口口口 |③---|
14
口①①口 |①---|
口④③口 |②---|
口③④口 |③---|
口②②口 |④---|
15
口口口口 |①---|
①④③① |②---|
②③④② |③---|
口口口口 |④---|
16
口①①口 |①---|
口④③口 |②---|
口③④口 |③---|
口②②口 |④---|
17
③②①口 |①---|
口口口口 |②---|
口口口口 |③---|
口口口口 |----|
18
口①①口 |①---|
口③④口 |②---|
口④③口 |③---|
口②②口 |④---|
19
口口口口 |①---|
①③④① |②---|
②④③② |③---|
口口口口 |④---|
20
口①①口 |①---|
口③④口 |②---|
口④③口 |③---|
口②②口 |④---|
21
口①②③ |①---|
口口口口 |②---|
口口口口 |③---|
口口口口 |----|
22
口口口口 |①---|
口②①口 |----|
口口口口 |②---|
口口口口 |----|
23
口口口口 |①---|
口口口口 |----|
口②①口 |②---|
口口口口 |----|
24
口口口口 |①---|
口口口口 |----|
口口口口 |②---|
口②①口 |----|
25
口口口口 |①---|
口口口口 |----|
口口口口 |②---|
②口口① |----|
26
口口口口 |①---|
口口口口 |----|
②②①① |②---|
口口口口 |----|
27
口口口口 |①---|
②②①① |----|
口口口口 |②---|
口口口口 |----|
28
②②①① |①---|
口口口口 |----|
口口口口 |②---|
口口口口 |----|
29
口口口口 |①---|
口①①口 |----|
口①①口 |----|
口口口口 |----|
30
①口口① |①---|
口⑤⑥口 |②---|
口③④口 |③-④-|
口②②口 |⑤-⑥-|
31
口口口口 |①---|
①⑤⑥① |②---|
口③④口 |③-④-|
②口口② |⑤-⑥-|
32
①②③④ |①---|
口口口口 |②---|
口口口口 |③---|
口口口口 |④---|
33
口口口口 |①---|
口口①口 |②---|
口②口口 |③---|
③口口口 |----|
34
①口口① |①---|
口⑥⑤口 |②---|
口④③口 |③-④-|
口②②口 |⑤-⑥-|
35
口口口口 |①---|
①⑥⑤① |②---|
口④③口 |③-④-|
②口口② |⑤-⑥-|
36
④③②① |①---|
口口口口 |②---|
口口口口 |③---|
口口口口 |④---|
37
口口口口 |①---|
口①口口 |②---|
口口②口 |③---|
口口口③ |----|
38
口口口口 |①---|
口③口① |②---|
④口②口 |③---|
口口口口 |④---|
39
口口口口 |①---|
①口③口 |②---|
口②口④ |③---|
口口口口 |④---|
40
④③②① |①---|
口口口口 |②---|
口口口口 |③---|
口口口口 |④---|
41
③口③口 |①---|
口②口② |②---|
①口①口 |③---|
口口口口 |----|
42
口口口口 |①---|
①口③口 |②---|
口②口④ |③---|
口口口口 |④---|
43
口口口口 |①---|
口③口① |②---|
④口②口 |③---|
口口口口 |④---|
44
①②③④ |①---|
口口口口 |②---|
口口口口 |③---|
口口口口 |④---|
45
口③口③ |①---|
②口②口 |②---|
口①口① |③---|
口口口口 |----|
46
口口①口 |①---|
口②口口 |----|
口口口口 |②---|
口口口口 |----|
47
口口口口 |①---|
口口口口 |----|
①口口口 |----|
口口口口 |----|
48
口口口口 |①---|
口口口口 |----|
口口②口 |②---|
口①口口 |----|
49
口口口口 |①---|
口口口① |----|
口口口口 |----|
口口口口 |----|

accuracy: 100%
最終更新:2022年07月23日 02:11