アットウィキロゴ
December in Strasbourg
nana(Sevencolors) feat. Mana

ADVANCED

Level: 7
BPM: 115
Notes: 332

1
口口口口 |----|
口口口口 |----|
口口口口 |----|
口口口口 |----|
2
口口口口 |①---|
①口口口 |----|
口②口口 |②---|
口口口口 |----|
3
口口口口 |①---|
口口口口 |----|
口口口口 |----|
口口①口 |----|
4
口口口口 |①---|
口口口口 |----|
口口②口 |②---|
口①口口 |----|
5
口口口口 |①---|
口口口① |----|
口口口口 |----|
口口口口 |----|
6
口③口① |①---|
口口口口 |②---|
④口②口 |③---|
口口口口 |④---|
7
①口③口 |①---|
口口口口 |②---|
口②口④ |③---|
口口口口 |④---|
8
口③⑦口 |①-②-|
①⑧④⑤ |③-④-|
⑦②⑥③ |⑤-⑥-|
口⑤①口 |⑦-⑧-|
9
①①口口 |①---|
口口②② |②---|
③③口口 |③---|
口口④④ |④---|
10
口口口口 |①---|
口②口④ |②---|
口口口口 |③---|
①口③口 |④---|
11
口口口口 |①---|
④口②口 |②---|
口口口口 |③---|
口③口① |④---|
12
口⑦③口 |①-②-|
⑤④⑧① |③-④-|
③⑥②⑦ |⑤-⑥-|
口①⑤口 |⑦-⑧-|
13
口口①① |①---|
②②口口 |②---|
口口③③ |③---|
④④口口 |④---|
14
口口②① |①---|
口口①② |②---|
口口口口 |③-④-|
⑥⑤④③ |⑤-⑥-|
15
①②口口 |①---|
②①口口 |②---|
口口口口 |③-④-|
③④⑤⑥ |⑤-⑥-|
16
口口②① |①---|
口口①② |②---|
口口口口 |③-④-|
⑥⑤④③ |⑤-⑥-|
17
②口口① |--①-|
口口口口 |-②--|
口①②口
口口口口

口口口④
口③③口
口口口口 |③---|
口口口口 |④---|
18
⑥⑤④③ |①---|
口口口口 |②---|
口口①② |③-④-|
口口②① |⑤-⑥-|
19
③④⑤⑥ |①---|
口口口口 |②---|
②①口口 |③-④-|
①②口口 |⑤-⑥-|
20
⑥⑤④③ |①---|
口口口口 |②---|
口口①② |③-④-|
口口②① |⑤-⑥-|
21
口口口口 |--①-|
①口口② |-②--|
口口口口
口②①口

口口口口
④口口口
口③③口 |③---|
口口口口 |④---|
22
②③①① |①---|
口口口口 |----|
口口口口 |②---|
口口口口 |③---|
23
口口口口 |①---|
②③①① |----|
口口口口 |②---|
口口口口 |③---|
24
口口口口 |①---|
口口口口 |----|
②③①① |②---|
口口口口 |③---|
25
口口口口 |①---|
口口口口 |----|
口口口口 |②---|
②③①① |③---|
26
④④口口 |①---|
口口③③ |②---|
②②口口 |③---|
口口①① |④---|
27
口口①① |①---|
②②口口 |②---|
口口③③ |③---|
④④口口 |④---|
28
口④⑤口 |①-②-|
口⑥③口 |③-④-|
口②⑦口 |⑤-⑥-|
口⑧①口 |⑦-⑧-|
29
②口口① |--①-|
口③③口 |-②--|
口①②口 |③---|
口④④口 |④---|
30
口口②口 |①--②|
口口口② |-③④⑤|
口⑤①①
口④③口

口⑧口⑥
口口口口
⑨口⑦口 |⑥-⑦-|
口口口口 |⑧-⑨-|
31
口口②① |①---|
口口①② |②③④⑤|
口⑤口口
口④③口

口⑧口⑥
口口口口
⑨口⑦口 |⑥-⑦-|
口口口口 |⑧-⑨-|
32
①口口口 |①---|
口②②口 |②---|
口⑤口口 |③---|
③口④③ |--④⑤|
33
②口口③ |①②-③|
口④①口 |--④⑤|
口口⑤口 |⑥---|
口⑥口口 |----|
34
口②口口 |①--②|
②口口口 |-③④⑤|
①①⑤口
口③④口

⑥口⑧口
口口口口
口⑦口⑨ |⑥-⑦-|
口口口口 |⑧-⑨-|
35
①②口口 |①---|
②①口口 |②③④⑤|
口口⑤口
口③④口

⑥口⑧口
口口口口
口⑦口⑨ |⑥-⑦-|
口口口口 |⑧-⑨-|
36
口②口① |①-②-|
④口③口 |③-④-|
口⑥口⑤ |⑤-⑥-|
⑧口⑦口 |⑦-⑧-|
37
口④④口 |①-②-|
①③③① |-③--|
口②②口 |④---|
口口口口 |----|
38
④口口口 |①---|
口②①③ |②---|
③①②口 |③---|
口口口④ |④---|
39
④③②① |①-②-|
口口⑤口 |③-④-|
口①口口 |⑤-⑥-|
⑤⑥⑦⑧ |⑦-⑧-|
40
④口口口 |①---|
口②①③ |②---|
③①②口 |③---|
口口口④ |④---|
41
③⑤⑤① |①-②-|
口④②口 |③-④-|
口①③口 |⑤---|
口⑥⑥口 |⑥---|
42
口口口④ |①---|
③①②口 |②---|
口②①③ |③---|
④口口口 |④---|
43
①②③④ |①-②-|
口⑤口口 |③-④-|
口口①口 |⑤-⑥-|
⑧⑦⑥⑤ |⑦-⑧-|
44
口口口④ |①---|
③①②口 |②---|
口②①③ |③---|
④口口口 |④---|
45
①口③口 |①---|
口②②③ |②---|
③②②口 |③---|
口③口① |----|
46
口口口④ |----|
①口口口 |①---|
口口③口 |②--③|
口②口口 |--④-|
47
①口口口 |----|
口口②口 |--①-|
口③口口 |--②-|
口口④口 |③-④-|
48
④口口口 |----|
口口口③ |①---|
口口口口 |②--③|
口①②口 |---④|
49
口口口口 |----|
口口①口 |①②③-|
口②口口 |----|
口口③口 |----|

accuracy: 100%
最終更新:2022年07月23日 02:17