アットウィキロゴ
December in Strasbourg
nana(Sevencolors) feat. Mana

EXTREME

Level: 10.2
BPM: 115
Notes: 610

1
口口口口 |----|
口口口口 |----|
口口口口 |----|
口口口口 |----|
2
口口④① |①---|
口口②口 |②---|
口③⑤口 |③---|
口口口口 |④--⑤|
3
口口口口 |----|
口口③口 |--①-|
①口口口 |②--③|
②④⑤⑥ |④⑤⑥-|
4
口③①口 |----|
③口口① |①---|
口口②② |②---|
口口口口 |③---|
5
口口口口 |①---|
口口口口 |----|
①①口口 |----|
口口口口 |----|
6
③③口口 |①-②-|
口口④口 |③-④-|
口口②口
口①口口

口口口⑨
口口⑧口
⑤⑤口口 |⑤-⑥-|
口⑦⑥口 |⑦--⑧-⑨|
7
②④④口 |①---②-③--④--|
口①口⑥ |⑤-⑥-|
口口③口
口⑤⑤口

⑫口口⑬
⑫⑧⑩⑬
⑦口口⑨ |⑦-⑧⑨-⑩|
口⑪⑪口 |⑪-⑫⑬|
8
口③①口 |①-②-|
口②口口 |③-④-|
①口④③
口口口口

口⑦口⑧
⑤⑦⑥⑧
口口⑨口 |⑤-⑥-|
口⑤口⑥ |⑦-⑧⑨--|
9
①⑧口⑧ |①-②③-④|
口口⑥⑦ |⑤-⑥⑦-⑧|
口④口④
口⑤②③

口口⑩口
⑬⑫口口
⑨⑪口口 |⑨-⑩-|
口口口口 |⑪-⑫⑬--|
10
口口口口 |①-②-|
口口口口 |③-④-|
口④①③
口②口③

口⑥⑤⑦
⑨口⑤口
口⑧口口 |⑤-⑥-|
口口口口 |⑦--⑧-⑨|
11
③④④口 |①---②-③--④--|
口口口② |⑤-⑥-|
口⑥①口
口口⑤口

口口口⑦
⑨⑧口⑪
口口口口 |⑦----⑧-⑨|
口⑩口口 |-⑩--⑪---|
12
⑦①⑤④ |①-②③|
口⑥口口 |④⑤⑥⑦|
口口⑦①
④口②③

口口口⑫
⑪口⑧口
口口口⑬ |⑧-⑨⑩|
口⑨⑩口 |⑪⑫⑬-|
13
口①口口 |①--②|
口口④口 |--③-|
②口口口 |④---|
口③口⑤ |⑤---|
14
口①①口 |①--②|
①口⑤① |-③④⑤|
口③④口
口②②口

⑧口口⑥
⑨⑦口口
⑥口⑩口 |⑥-⑦-|
口⑧口口 |⑧-⑨⑩|
15
口①口① |①---|
口④⑤口 |②③④⑤|
口③口口
②口②口

口⑥口⑧
口⑨⑩口
口口⑦⑥ |⑥-⑦-|
口⑧口口 |⑧-⑨⑩|
16
口口口口 |①---|
①④⑤① |②③④⑤|
口③口口
②口口②

⑧⑥口口
口口口口
口⑨⑦⑥ |⑥-⑦-|
口⑧口口 |⑧-⑨-|
17
②②①① |--①-|
口口口口 |-②--|
⑧④③⑦ |③④⑤⑥|
⑥②①⑤ |-⑦⑧-|
18
口①①口 |①--②|
①口⑤① |-③④⑤|
口③④口
口②②口

⑧口口⑥
⑨⑦口口
⑥口⑩口 |⑥-⑦-|
口⑧口口 |⑧-⑨⑩|
19
口①口① |①---|
口④⑤口 |②③④⑤|
口③口口
②口②口

口⑥口⑧
口⑨⑩口
口口⑦⑥ |⑥-⑦-|
口⑧口口 |⑧-⑨⑩|
20
口口口口 |①---|
①④⑤① |②③④⑤|
口③口口
②口口②

⑧⑥口口
口口口口
⑨口⑦⑥ |⑥-⑦-|
⑧口口口 |⑧⑨--|
21
口②①口 |--①-|
②口口① |-②--|
口口口口
口②①口

⑧口⑦口
口⑥⑤口
口④③口 |③④⑤⑥|
口口口口 |-⑦⑧-|
22
口口口① |①---|
口口口② |②③④⑤|
口口口口
③④⑤口

口口口⑩
口⑦⑨口
口口口⑥ |⑥-⑦-|
口口口⑧ |⑧-⑨⑩|
23
①口口口 |①---|
②口口口 |②③④⑤|
口口口口
口⑤④③

⑪口口口
口⑩⑦口
⑥口⑨口 |⑥-⑦-|
⑧口口口 |⑧⑨⑩⑪|
24
口口口① |①---|
口口口② |②③④⑤|
口口口口
③④⑤口

口口口⑩
口⑦⑨口
口口口⑥ |⑥-⑦-|
口口口⑧ |⑧-⑨⑩|
25
①口口口 |①---|
②口口口 |②③④⑤|
口口口口
口⑤④③

⑪口口口
口⑩⑦口
⑥口⑨口 |⑥-⑦-|
⑧口口口 |⑧⑨⑩⑪|
26
口②①① |①-②-|
口⑤口③ |③④⑤⑥|
⑪⑧⑦⑦ |⑦-⑧-|
⑥⑩④⑨ |⑨-⑩⑪|
27
口②①① |①-②-|
口⑤口③ |③④⑤⑥|
⑪⑧⑦⑦ |⑦-⑧-|
⑥⑩④⑨ |⑨-⑩⑪|
28
口⑥①口 |①②③④|
口②⑦⑤ |⑤⑥⑦⑧|
口④③口
⑧口口口

⑫⑯口⑬
口⑩⑮口
口⑭口⑪ |⑨⑩⑪⑫|
口口⑨口 |⑬⑭⑮⑯|
29
②口①⑧ |--①-|
口⑥⑤口 |-②--|
口⑦④口 |③④⑤⑥|
②③①口 |-⑦⑧-|
30
④口①口 |①-②③|
④口⑦① |④⑤⑥⑦|
①⑤⑥④
口②③口

⑩⑫⑧口
⑪⑨口口
⑧口口口 |⑧-⑨-|
口⑩口口 |⑩-⑪⑫|
31
口口②① |①-②-|
口⑤⑥③ |③④⑤⑥|
③④①口
①③口口

口⑦口⑨
口⑩⑪口
口口⑧口 |⑦-⑧-|
口⑨⑦口 |⑨-⑩⑪|
32
③⑤③⑤ |①-②-|
①口⑨⑦ |③-④-|
②④⑥⑧ |⑤-⑥-|
口口口口 |⑦-⑧⑨|
33
③口⑤口 |①②③④|
口④口⑥ |-⑤⑥⑦|
②①⑦口
③口⑤口

口口口⑪
口⑫⑬口
口⑩口口 |⑧⑨⑩⑪|
口⑧口⑨ |-⑫⑬-|
34
口④①口 |①-②③|
④口⑦① |④⑤⑥⑦|
①⑤⑥④
口②③口

⑩⑫⑧口
⑪⑨口口
⑧口口口 |⑧-⑨-|
口⑩口口 |⑩-⑪⑫|
35
口口②① |①-②-|
口⑤⑥③ |③④⑤⑥|
③④口①
①③口口

⑨口口⑦
口⑩⑪口
口口⑧口 |⑦-⑧-|
⑨口⑦口 |⑨-⑩⑪|
36
口口③口 |①-②-|
口④⑤口 |③-④⑤|
②口②③
口①口口

口口⑨⑨
⑥口口口
口⑦⑧口 |⑥-⑦⑧|
口⑥⑩⑩ |⑨-⑩-|
37
口②③口 |①-②-|
③①①② |-③--|
②口口③
口口口口

口⑨口口
口口⑧口
口⑤④口 |④⑤⑥⑦|
口⑦⑥口 |-⑧⑨-|
38
口⑤⑤① |①-----②③|
口口口④ |④-⑤-|
②③④口
口口口口

⑦口⑬口
⑫口⑨口
口口口⑥ |⑥⑦⑧⑨|
⑧⑩⑪⑩ |⑩⑪⑫⑬|
39
④口口① |①②③---④-|
⑦口口⑤ |⑤⑥⑦-|
①②③口
口⑥口口

口⑫口口
口⑪⑮口
口⑩口⑧ |⑧-⑨-⑩⑪⑫-|
⑨口⑭⑬ |⑬⑭--⑮---|
40
口④⑦① |①--②③-④-|
⑥⑧口⑤ |⑤⑥⑦⑧|
②③口口
口口口口

口口⑮口
⑭口⑪口
口口⑬⑨ |⑨-⑩⑪|
⑩⑫⑨⑫ |⑫⑬⑭⑮|
41
①③口口 |--①-|
口口②② |②-③-|
①口③口
②③①口

口口⑤④
④⑨口⑩
⑥口口④ |④-⑤⑥|
⑦口⑧⑦ |⑦⑧⑨⑩|
42
①⑤⑤口 |①-----②③|
④口口口 |④-⑤-|
口④③②
口口口口

口⑬口⑦
口⑨口⑫
⑥口口口 |⑥⑦⑧⑨|
⑩⑪⑩⑧ |⑩⑪⑫⑬|
43
①口口④ |①②③---④-|
⑤口口⑦ |⑤⑥⑦-|
口③②①
口口⑥口

口口⑫口
口⑮⑪口
⑧口⑩口 |⑧-⑨-⑩⑪⑫-|
⑬⑭口⑨ |⑬⑭--⑮---|
44
①⑧④⑧ |①--②③-④-|
⑤⑦⑦口 |⑤⑥⑦⑧|
口口③②
口口口⑥

口口⑬口
⑭口口⑨
⑫⑪⑮⑪ |⑨⑩⑪⑫|
⑯⑩⑩口 |⑬⑭⑮⑯|
45
⑥④⑥⑤ |①②③-|
⑥②口口 |④⑤-⑥|
⑤⑤口④
口③④①

口口口口
⑬⑫⑪⑩
口口⑧口 |⑦-⑧-⑨-|
口⑨口⑦ |⑩⑪⑫⑬|
46
①口口口 |----|
口口口口 |①---|
口口口③ |②--③|
口口②④ |--④-|
47
口口①① |----|
口口②① |--①-|
口③口口 |--②-|
④口口口 |③-④-|
48
①口口③ |----|
口口②口 |①---|
④口口口 |②--③|
口④④④ |---④|
49
口③口口 |----|
口口②口 |①②③-|
口口①口 |----|
口口口口 |----|

accuracy: 100%
最終更新:2022年07月23日 04:12