アットウィキロゴ
Aftermath
BEMANI Sound Team "猫叉Master & あさき & Yvya"

EXTREME

Level: 10.2
BPM: 200
Notes(hold): 887(79)

1
口口口口 |①-②-|
③口口⑥ |③-④-|
②口口⑤ |⑤-⑥-|
①⑦口④ |--⑦-|
2
口②⑤口 |--①-|
口①④口 |②---|
口口③口 |③-④-|
口口口口 |⑤---|
3
口口口口 |①-②-|
③口口⑥ |③-④-|
②口口⑤ |⑤-⑥-|
①⑦口④ |--⑦-|
4
口②⑤口 |--①-|
口①④口 |②---|
口口③口 |③-④-|
口口口口 |⑤---|
5
①口口① |①-②-|
③口口⑥ |③-④-|
②口口⑤ |⑤-⑥-|
口⑦口④ |--⑦-|
6
口②⑤口 |--①-|
口①④口 |②---|
口口③口 |③-④-|
口口口口 |⑤---|
7
①⑤口口 |①-②③|
⑨口口⑩ |④-⑤-|
口⑦⑥⑧ |⑥⑦⑧-|
口③②④ |⑨-⑩-|
8
口②②⑦ |--①-|
口口⑥口 |②-③-|
口⑤③口 |④-⑤-|
④①①口 |⑥-⑦-|
9
①―<口 |①-②-|
口①―< |--③-|
口口口口 |④---|
口口②① |⑤-⑥-|

口口⑥⑤
口口口口
口口④③
口口口口
10
口口口口 |--①-|
―③① |--②-|
口②口口 |③---④-|
口>―③ |--⑤---|

3④―<
口34口
④―<口
口口口4

口5口口
口口口口
5>―⑤
―⑤口
11
口口口口 |①---|
①――< |--②-|
口口口口 |----|
①――< |③---|

―②口
2口口口
―②1
2口1口

口口3口
口③③口
口口3口
口口口口
12
口③口⑦ |--①-|
②口⑥口 |②-③-|
口口口⑤ |④-⑤-|
口①④口 |⑥-⑦-|
13
①口①口 |①---|
|口|口 |--②-|
∧口∧口 |--③④|
口口口口 |⑤⑥⑦-|

2口2口
――②
②―<口
口口口口

口③口口
口④口3
3⑤口口
口⑥口⑦
14
④口口③ |①-②-|
口⑧②⑤ |③-④-|
⑥口①口 |⑤-⑥-|
口口⑦口 |⑦-⑧-|
15
―①口 |①---|
口口口口 |②-③-|
口>―① |④-⑤-|
口口口口 |⑥-⑦-|

②口2口
⑦口⑤口
⑥口④2
口③口口
16
⑥口口⑦ |①-②-|
口④口② |③-④-|
口口口⑤ |⑤-⑥-|
⑧③口① |⑦-⑧-|
17
口口口口 |①---|
口口口口 |----|
―①口 |----|
口>―① |--②-|

②口口口
口口口口
口口2口
口口口2
18
口口②① |①-②-|
③④口口 |③-④-|
口口⑥⑤ |⑤-⑥-|
⑥⑦口⑧ |⑦-⑧-|
19
⑩④⑪⑤ |①-②-③-|
⑥⑫③⑨ |④-⑤-⑥-|
⑧②口⑦ |⑦-⑧-⑨-|
口口①口 |⑩-⑪-⑫-|
20
口④口⑦ |①-②-③-|
⑧口③口 |④-⑤-⑥-|
⑫⑥①⑨ |⑦-⑧-⑨-|
⑩②⑪⑤ |⑩-⑪-⑫-|
21
―①口 |①---|
口口口口 |--②-|
―①口 |----|
口口口口 |③-④-|

口口2口
口②―<
口口2口
口②―<

口口口口
口口口口
口>―③
―③口

口口口口
口3口口
④口口口
口3口口
22
①⑥口口 |--①-|
口⑤口口 |--②-|
口②③3 |③-④-|
口④3口 |⑤-⑥-|
23
④口⑤③ |①-②-|
⑥口⑦② |③-④-|
⑧口口口 |⑤-⑥-|
口口口① |⑦-⑧-|
24
⑥口口口 |①-②-|
口②⑦① |③-④-|
⑧④口③ |⑤-⑥-|
口口口⑤ |⑦-⑧-|
25
口口口口 |①-②-|
口口口口 |----|
口口口口 |----|
口②①口 |----|
26
口③②① |----|
口口口④ |--①②|
⑤口口口 |③-④-|
口口口⑥ |⑤-⑥-|
27
⑥口口⑦ |①-②-|
③④⑤口 |--③④|
口①口口 |⑤---|
口口②口 |⑥-⑦-|
28
口③口口 |①-②-|
口⑤口⑥ |③-④-|
口口④② |⑤-⑥-|
①⑤口⑥ |----|
29
口>―① |①---|
口口①口 |----|
口①口口 |②---|
口口口口 |③-④-|

②口③3
口③口口
③―<口
口口口④
30
口口口口 |--①-|
口口①口 |--②-|
3④③② |③-④-|
⑤口⑥口 |⑤-⑥-|
31
④③②① |①---|
口口⑤② |②---|
口口口③ |③---|
口口口④ |④-⑤-|
32
口口口② |--①-|
①口口口 |----|
口②口口 |②---|
③口①口 |③---|
33
①―<口 |①---|
口①口口 |----|
口口①口 |②---|
口口口口 |③-④-|

3③口②
口口③口
口>―③
④口口口
34
口口口口 |--①-|
口①口口 |--②-|
②③④3 |③-④-|
口口口口 |----|
35
①②③④ |①---|
②⑤口口 |②---|
③口口口 |③---|
④口口口 |④-⑤-|
36
②口口口 |----|
口口口① |①---|
口口②口 |②---|
口①口③ |③---|
37
口②①② |①---|
口口③口 |----|
①口②口 |②---|
口口口口 |③---|
38
口④③口 |①---|
口①口口 |②---|
口②口口 |③-④-|
①口①口 |----|
39
①>―④ |①---|
②口口口 |②---|
③口口口 |③---|
④③②① |④---|
40
②―<2 |①---|
口①口③ |②---|
口②―< |③---|
口口③口 |----|

3口口口
口口口口
口3口口
口口口口
41
口口口口 |①---|
口口口③ |②---|
口口口② |③---|
①―<① |④---|

口口口口
口口口口
④―<口
口口④口
42
口口口口 |①---|
口口②口 |②---|
口口①口 |③-④-|
口口口口 |--⑤-|

口口⑤⑤
③―<口
口口口口
口口④③
43
口口口口 |①-②-|
1④⑤⑥ |③-④-|
1③②① |⑤-⑥-|
1口⑧⑦ |⑦-⑧-|
44
口⑤④口 |①-②-|
口③⑥口 |③-④-|
②⑦口口 |⑤-⑥-|
口①⑧口 |⑦-⑧-|
45
①――< |①-②-|
口口口③ |③-④-|
口口口② |⑤-⑥-|
口口口① |⑦-⑧-|

2④⑤口
口⑦口口
口口⑥口
口⑧口口
46
――① |①---|
口口口口 |②---|
口口口口 |③---|
①――< |④-⑤-|

口∨口2
口|②口
口②|口
2口∧口

口口口口
③――<
――③
口口口口

口口口口
4⑤3口
口3⑤4
口口口口
47
④①②③ |----|
口④③口 |①---|
口③④口 |②---|
③口口④ |③-④-|
48
口口⑦口 |--①②|
⑥口口① |③---|
②口口⑤ |④-⑤-|
口④③口 |⑥-⑦-|
49
①②口⑥ |①-②-|
口口口口 |--③-|
口⑤口口 |④---|
⑥口④③ |⑤-⑥-|
50
口口②口 |--①-|
②①口口 |--②-|
口口①② |--③-|
口②口口 |④⑤⑥⑦|

③――<
口口口口
口口口口
口口口口

口⑦口口
口口④口
口⑤口口
口口⑥口
51
1口口① |①-②-|
⑥⑥口② |③-④-|
口口③口 |⑤-⑥-|
④④口⑤ |⑦-⑧-|

口口口⑧
口口口口
口口口⑧
口口⑦口
52
①⑥②口 |①-②-|
口口⑤口 |③-④-|
⑥④②口 |⑤---|
③口口口 |⑥---|
53
口口⑥⑤ |①-②-|
④③⑤⑥ |--③-|
口口①② |④---|
③④②① |⑤-⑥-|
54
①②口口 |--①-|
口③口口 |②---|
②①④口 |③-④-|
口⑤口口 |⑤-⑥-|

――⑥
口口口口
口口口口
口口口口
55
口①口口 |--①-|
②口口口 |--②-|
口③口口 |--③-|
④口口口 |--④-|
56
口①口1 |--①-|
口|口口 |②-③-|
口∧口口 |④-⑤-|
口口口口 |⑥-⑦-|

口2口口
―②口
口口口口
口口口口

∨口口口
|口3口
③口口口
口口口口

口口口口
口口口口
4>―④
口口口口

口口口口
口∨口口
口|口5
口⑤口口

口口口口
口>―⑥
口口口口
口6口口

⑦―<口
口口口7
口口口口
口口口口
57
1口∨口 |①---|
口口|口 |②---|
口口①口 |③---|
口口口口 |④---|

口口口口
②③④口
口口3口
口口口口
58
口①①① |①---|
口口④⑤ |②---|
口口⑥口 |③-④-|
②②②③ |⑤-⑥-|
59
①口口口 |①---|
口口口口 |----|
口口口口 |----|
口口口口 |----|
60
口口口口 |----|
口口口口 |----|
口口口口 |----|
口口口口 |----|
61
⑦口③① |①---|
④⑤⑥口 |②-③-|
口口②口 |--④⑤|
口口口口 |⑥-⑦-|
62
⑨⑧⑦口 |①-②-|
口口口② |③-④⑤|
⑥⑤④口 |⑥-⑦⑧|
口③口① |⑨---|
63
口口口口 |①-②-|
①口口① |--③-|
③口口② |--④-|
①口口① |⑤-⑥-|

口⑤⑤口
⑥口④口
口⑤⑤口
口口口口
64
⑤口口③ |--①-|
口②口① |--②-|
口口口口 |③-④-|
⑥口口④ |⑤-⑥-|
65
⑫⑪⑩⑨ |①②③④|
⑧⑦⑥⑤ |⑤⑥⑦⑧|
④③②① |⑨⑩⑪⑫|
⑯⑮⑭⑬ |⑬⑭⑮⑯|
66
口口⑤口 |①-②-|
④⑥口③ |③-④-|
②口⑦① |⑤-⑥-|
口⑧口口 |⑦-⑧-|
67
⑤>―① |①-②-|
口⑥口口 |--③-|
③④口口 |④---|
②口口口 |⑤-⑥-|

口口口5
口口口口
口口口口
口口口口
68
口⑤⑤口 |--①-|
口口口口 |--②-|
口④③② |③-④-|
口①口口 |⑤---|
69
①口口② |①---|
②④③① |②---|
③⑤口④ |③---|
②④③① |④-⑤-|
70
①口②② |--①-|
口⑥⑥口 |②-③-|
口口口口 |④-⑤-|
口⑤④③ |⑥---|
71
①③④② |①---|
④⑤口③ |②---|
口②①口 |③---|
①③④② |④-⑤-|
72
②⑥口② |--①-|
⑥口口⑤ |②-③-|
②口④② |④-⑤-|
①③⑥⑥ |⑥---|
73
④口②② |①---|
口④①口 |②-③-|
口②③口 |④---|
②口⑥⑤ |⑤-⑥-|
74
口③―< |--①-|
②口口① |--②-|
③―<口 |③---|
口口口口 |④---|

口4口口
口口口口
4④口口
口口口口
75
―③口 |①---|
口②①口 |②---|
口>―③ |③---|
口口口口 |④---|

口口4口
口口口口
口口④4
口口口口
76
口口口口 |①---|
①口口② |②---|
口口口口 |③---|
口口口口 |④---|

口口口口
口③―<
口口口口
③―<口

口口口口
口4口口
口口口口
4④口口
77
口口口口 |①---|
―③口 |②---|
口②①口 |③---|
口>―③ |④---|

口口口口
口口4口
口口口口
口口④4
78
口口④口 |①---|
口④口口 |②---|
①口③② |③---|
口③口口 |④---|
79
⑤>―① |①-②-|
口⑥口口 |--③-|
③④口口 |④---|
②口口口 |⑤-⑥-|

口口口5
口口口口
口口口口
口口口口
80
口⑤⑤口 |--①-|
口口口口 |--②-|
口④③② |③-④-|
口①口口 |⑤---|
81
①口口② |①---|
②④③① |②---|
③⑤口④ |③---|
②④③① |④-⑤-|
82
①口②② |--①-|
口⑥⑥口 |②-③-|
口口口口 |④-⑤-|
口⑤④③ |⑥---|
83
①③④② |①---|
④⑤口③ |②---|
口②①口 |③---|
①③④② |④-⑤-|
84
②⑥口② |--①-|
⑥口口⑤ |②-③-|
②口④② |④-⑤-|
①③⑥⑥ |⑥---|
85
④口②② |①---|
口④①口 |②-③-|
口②③口 |④---|
②口⑥⑤ |⑤-⑥-|
86
口③―< |--①-|
②口口① |--②-|
③―<口 |③---|
口口口口 |④---|

口4口口
口口口口
4④口口
口口口口
87
―③口 |①---|
口②①口 |②---|
口>―③ |③---|
口口口口 |④---|

口口4口
口口口口
口口④4
口口口口
88
口口口口 |①---|
①口口② |②---|
口口口口 |③---|
口口口口 |④---|

口口口口
口③―<
口口口口
③―<口

口口口口
口4口口
口口口口
4④口口
89
口口口口 |①---|
―③口 |②---|
口②①口 |③---|
口>―③ |④---|

口口口口
口口4口
口口口口
口口④4
90
口⑤④口 |①---|
口⑨⑧口 |②---|
①⑦⑩② |③④⑤⑥|
口③⑥口 |⑦⑧⑨⑩|
91
①――< |①-②-|
⑤口口② |③-④-|
③口口④ |⑤-⑥-|
口口口口 |⑦-⑧-|

口口口⑥
口⑧⑦口
口口口口
口口口口
92
口④⑤口 |①-②-|
⑧口口⑦ |③-④-|
⑥②①口 |⑤-⑥-|
口口③口 |⑦-⑧-|
93
1⑤④口 |①---|
口①①口 |②-③-|
⑦③⑥口 |④-⑤-|
口口口② |⑥-⑦-|
94
口>―① |①-②-|
口②③④ |③-④-|
口>―① |⑤-⑥-|
口口口口 |⑦-⑧-|

口口口4
⑤―<口
⑧⑦⑥4
⑤―<口

口口口口
8口口口
口口口口
8口口口
95
口口①口 |①-②-|
口口|口 |③-④-|
口口|口 |⑤-⑥-|
口口∧口 |⑦-⑧-|

②口口口
口④③口
⑧⑥⑤⑦
口口口口
96
④口口③ |①-②-|
②⑥⑤① |③-④-|
⑧口口⑦ |⑤-⑥-|
口口口口 |⑦-⑧-|
97
④口1⑤ |①---|
口⑥⑦口 |②-③-|
口①①口 |④-⑤-|
②口口③ |⑥-⑦-|
98
口⑤④口 |①②③④|
⑨⑬⑭⑧ |⑤⑥⑦⑧|
①③⑫⑥ |⑨⑩⑪⑫|
⑦⑪②⑩ |⑬⑭⑮⑯|

口口口口
口口口口
⑮口口口
口口⑯口
99
①――< |①-②-|
口口口口 |--③-|
口口口口 |--④-|
口口口口 |--⑤-|

口口③口
口⑤⑤口
口②口口
口口口④
100
口口口口 |--①-|
口口口⑤ |②---|
口②④① |③-④-|
口口③口 |⑤---|
101
口口口口 |①-②-|
口①③⑤ |--③-|
口口⑤口 |--④-|
口④⑤② |--⑤-|
102
口口②② |----|
口口①口 |①---|
口口口① |②---|
口口③③ |③---|
103
口口③③ |①-②-|
口①②③ |--③-|
⑤①②④ |--④-|
口口④④ |--⑤-|
104
口口口口 |--①-|
口②―< |②---|
口口①口 |③---|
口口口口 |④---|

口口口口
口4④③
口口口口
口口口口
105
口口口口 |①---|
口口口口 |②---|
④③②① |③---|
④③②① |④---|
106
口口②① |①-②-|
口口④③ |③-④-|
口口⑥⑤ |⑤-⑥-|
口口⑧⑦ |⑦-⑧-|
107
1口口口 |①---|
口口口口 |----|
口口口口 |----|
口口口口 |----|
最終更新:2022年04月07日 16:45