アットウィキロゴ
Idola (BEMANI SYMPHONY Arr.)
iconoclasm × 原口 大 + gaQdan

EXTREME

Level: 9.7
BPM: 140-176
Notes(hold): 782(61)

1
口口口口 |----|
口口口口 |----|
口口口口 |----|
口口口口 |----|
2
口∨口∨ |①---|
口|口| |②---|
口|①| |----|
口①∧① |③---|

口口口口
口口口口
③口2口
口2口2
3
口①口口 |①---|
口口口② |②---|
口④口口 |③---|
口口③口 |④---|
4
口②口③ |①---|
④口①口 |②---|
口口口口 |③---|
口口口口 |④---|
5
④口口口 |①---|
口口③口 |②---|
口口口口 |③---|
②口①口 |④---|
6
口∨口∨ |①---|
口|口| |②---|
口|①| |----|
口①∧① |③---|

口口口口
口口口口
口口2③
口2口2
7
口口①口 |①---|
口口口④ |②---|
②口口口 |③---|
口口③口 |④---|
8
口①②口 |①---|
口口口口 |②---|
口口口口 |③---|
口③④口 |④---|
9
⑦口②口 |①-②-|
口①⑥① |③-④-|
③⑤口⑤ |⑤-⑥-|
口⑨⑧④ |⑦-⑧⑨|
10
口⑤口⑤ |①---|
②①口① |②-③④|
口④③⑥ |⑤---|
口口口口 |⑥---|
11
口⑤①⑤ |①---|
②④③口 |②-③④|
①口⑧⑥ |⑤---|
口⑦口口 |⑥-⑦⑧|
12
①⑦①⑤ |①-②-|
⑧④⑥口 |③-④-|
口②口口 |⑤-⑥-|
③口③口 |⑦-⑧-|
13
口口口口 |①---|
口③口④ |②---|
口口口口 |③---|
口①口② |④-⑤⑥|

口口口口
口口口口
口口口口
口⑥⑤口
14
口⑤⑥⑤ |①---|
①③①口 |②-③④|
口口④口 |⑤-⑥-|
②⑦⑧⑦ |⑦-⑧-|
15
③⑤口⑤ |①-②-|
①口③① |③-④-|
④②⑥口 |⑤-⑥-|
口⑦⑧⑦ |⑦-⑧-|
16
口口②⑤ |①-②-|
⑤③④① |③-④-|
口①口③ |⑤-⑥-|
⑦⑥⑦口 |⑦-⑧-|

口口口口
口口口口
口⑧口口
口口口口
17
①②③④ |①---|
口口口口 |②---|
口口①口 |③---|
口口口口 |④⑤⑥⑦|

⑤口口口
口⑥口口
口口⑦口
口口口口
18
口口口④ |①---|
口⑥口③ |②---|
口口⑤② |③---|
口①口① |④-⑤⑥|
19
①⑤①口 |①---|
②⑤口口 |②---|
③口口口 |③---|
④口口口 |④-⑤-|
20
口口口口 |①---|
口口口口 |②---|
④③②① |③---|
④③②① |④---|
21
口口口① |①---|
口口口∧ |②-③-|
口口口口 |④---|
口口口口 |⑤-⑥-|

口口④2
口口∧口
口口口口
口口口③

口口5口
口口口口
口口口口
口口⑥口
22
口①口口 |①---|
口∧口口 |②-③④|
口口口口 |⑤---|
口口口口 |⑥-⑦-|

⑤2口口
∧口口口
口口④口
口③口口

6口口口
口口口口
口⑦口口
⑥口口口
23
口⑤<口 |①-②-|
∨口口③ |③-④-|
⑦口口∧ |⑤-⑥-|
口>①口 |⑦-⑧-|

口6口口
口口口4
8口口口
口口2口
24
口口口口 |①---|
口口口口 |②-③④|
口口口口 |⑤---|
―①口 |⑥-⑦⑧|

口口口口
⑤④③口
|口口②
∧口2口

口⑥口口
6口口口
口⑧⑦口
口口口口
25
①口口① |①---|
口②口口 |--②-|
口口⑤② |----|
③③口④ |③-④⑤|
26
③③口口 |①---|
口口②① |②-③-|
①①口⑥ |④-⑤-|
⑤⑤④口 |⑥---|
27
口口口① |①---|
③③⑦⑤ |②-③-|
①①②⑥ |④---|
⑤⑤④口 |⑤-⑥⑦|
28
③③②① |①---|
口⑥口口 |②-③-|
①①⑦口 |④-⑤-|
⑤⑤④口 |⑥-⑦-|
29
口口口① |①---|
口口口∧ |②-③-|
口口口口 |④---|
口口口口 |⑤-⑥-|

口口④2
口口∧口
口口口口
口口口③

口口5口
口口口口
口口口口
口口⑥口
30
口①口口 |①---|
口∧口口 |②-③④|
口口口口 |⑤---|
口口口口 |⑥-⑦⑧|

⑤2口口
∧口口口
口口④口
口③口口

6口口口
口口口口
口口口⑦
⑥口⑧口
31
⑤口口⑥ |①---|
口口④口 |②-③-|
③①②口 |④-⑤-|
口⑦⑦口 |⑥-⑦-|
32
⑦口⑥口 |①-②-|
⑤④⑤① |③-④-|
口③②③ |⑤-⑥-|
口口口① |⑦-⑧-|

口口口口
口口口⑧
口口口口
口口口口
33
口口口⑥ |①---|
口口⑤口 |②-③-|
口④②③ |--④-|
①――< |⑤-⑥-|
34
口口①口 |①---|
口口口口 |--②-|
②口口口 |----|
3口③口 |③---|
35
口口①口 |①---|
②口口口 |--②-|
口口口口 |----|
口③口口 |③---|
36
口口②口 |--①-|
口口口口 |----|
口③口① |②---|
口口口口 |③---|
37
①③口口 |①---|
口口①① |②---|
②④口④ |③---|
口口③③ |④-⑤-|

口口口口
口口⑤口
口口口口
口口口口
38
口口①③ |①---|
①①④口 |②---|
口④②④ |③---|
③③口口 |④---|
39
④①⑤④ |①---|
④①口口 |②-③-|
③口口口 |④---|
口口②① |⑤---|
40
⑤③⑤口 |①---|
口口①③ |②---|
②④①③ |③-④-|
②①②口 |⑤---|
41
口⑤口③ |①---|
①口①口 |②---|
②口②口 |③-④-|
口③④⑤ |⑤---|
42
⑤④③口 |①---|
口②口② |②---|
口①口① |③-④-|
③口⑤口 |⑤---|
43
口口口③ |①---|
①口①③ |②---|
口②口② |③---|
口④④口 |--④-|
44
①口口口 |①---|
①②②③ |--②-|
④口⑤口 |③-④-|
口⑥口口 |⑤-⑥-|
45
①①①① |①---|
②②口口 |--②-|
口口口口 |----|
口口口口 |③-④-|

口口④口
口口口口
口口口口
③③口③
46
②②口① |①---|
口口口③ |--②-|
①①口口 |③-④-|
④④⑤口 |⑤---|
47
口口①口 |①---|
②②口③ |--②-|
①①②口 |③---|
④④口口 |④---|
48
③⑦③⑦ |①-②-|
⑤④②口 |③-④-|
口①口① |⑤-⑥-|
口⑥⑤⑧ |⑦-⑧-|
49
④口口口 |①---|
口②③③ |②-③-|
口①①① |④---|
⑤口口口 |⑤---|
50
口⑥口口 |①-②-|
⑤口⑤③ |③-④-|
③②④口 |⑤-⑥-|
口①口① |⑦-⑧-|

口口口⑦
口口口口
口口口口
⑦口口⑧
51
①口①口 |①---|
②②口③ |--②-|
口①口口 |③---|
④口④口 |④---|
52
②②①② |①---|
③③③③ |②---|
①④②① |③---|
④①④口 |④---|
53
口口②口 |①---|
口口④口 |----|
口口口③ |②---|
口口口① |③-④-|
54
③①口口 |①---|
口口⑤口 |②---|
口②口④ |③---|
口口口口 |④-⑤-|
55
口口③① |①---|
口⑤口口 |②---|
口④②口 |③---|
口③①口 |④-⑤-|
56
③①口口 |①---|
口口⑤口 |②---|
②④口口 |③-④-|
①口③口 |⑤---|
57
口口口① |①---|
口口口② |②---|
口口口③ |③---|
口口口④ |④---|
58
口⑤④口 |①-②-③-|
口③⑧口 |④-⑤-⑥-|
口⑨②口 |⑦-⑧-⑨-|
①⑦⑥口 |⑩-⑪-⑫-|

口口口⑩
⑪口口口
口口⑫口
口口口口
59
口口口④ |①---|
口口口③ |②---|
口口口② |③---|
口口口① |④---|
60
①⑨⑧口 |①-②-③-|
⑦口②⑥ |④-⑤-⑥-|
口⑤口口 |⑦-⑧-⑨-|
口③④口 |⑩-⑪-⑫-|

⑪口口⑫
口口口口
口口⑩口
口口口口
61
口口口口 |①-②-|
⑤⑧口⑤ |③-④-|
①④⑦② |⑤-⑥-|
①⑥③② |⑦-⑧-|
62
⑤②①口 |①-②-|
⑦口③⑦ |③-④-|
①④⑥⑤ |⑤-⑥-|
口⑧⑨口 |⑦-⑧⑨|
63
口口③口 |①-②-|
口⑦⑥⑦ |③-④-|
②⑤⑧⑤ |⑤-⑥-|
④口口① |⑦-⑧-|
64
⑤⑥∨ |①-②-|
④口口⑦ |③-④-|
③口口⑧ |⑤-⑥-|
∧②①< |⑦-⑧-|

口6口口
口口口8
4口口口
口口2口
65
口口口口 |①---|
口口口口 |----|
口∨∨口 |②----③--|
口①①口 |-④--|

口口口③
口口④口
口④口口
③22口
66
①口口 |①---|
①<口口 |----|
口口②口 |②---|
口口口① |----|

口2口口
2口口口
口口口口
口口口口
67
口口④口 |①---|
⑤①⑧口 |②-③-④-|
口⑦⑥口 |⑤---|
口③②口 |⑥-⑦-⑧-|
68
口③③③ |①-②-|
口⑥口⑥ |③---|
口口⑥口 |④-⑤-|
①<>④ |⑥---|

口口口口
口口口口
口口口口
2口口5
69
③口④口 |①---|
口口①口 |②---|
②①④① |③---|
口口①口 |④---|
70
⑥①⑦⑧ |①-②-|
①⑥口口 |③-④-|
⑤②口口 |⑤-⑥-|
②⑤③④ |⑦-⑧-|
71
口①口口 |①---|
①口①⑥ |②---|
口①⑤② |③---|
④③口④ |④-⑤-⑥-|
72
⑦口①< |①-②-|
∨口口口 |③-④-|
③⑧>⑥ |⑤-⑥-|
口>⑤口 |⑦-⑧-|

口口2口
口口口口
4口口7
口口7口
73
口⑦口④ |①-②-③-|
①③②① |④-⑤-⑥-|
⑤口口口 |⑦-⑧-⑨-|
口⑨⑧⑥ |⑩-⑪-⑫-|

口口⑫口
⑪口口口
口口口⑩
口口口口
74
①⑦口④ |①-②-③-|
⑦③②④ |④-------⑤---|
⑤⑤⑦口 |⑥-⑦-|
⑥⑥口口 |--⑧⑨|

口口口口
口口⑧口
口口口⑨
口口口口
75
口口口③ |①---|
∨⑥⑤④ |②---|
②③口口 |③---|
口口①口 |④-⑤-⑥-|

口口口口
口口口口
3口口口
口口口口
76
①>①口 |①---|
②⑤⑤口 |②---|
口∨口口 |③-④-|
③④③口 |⑤---|

口口2口
口口口口
口口口口
口5口口
77
①<②② |①---|
口口口① |--②-|
口③①口 |----|
口口口④ |③-④-|
78
口口口口 |①---|
口口口② |--②-|
口口①① |--③-|
口口②口 |④-⑤-|

口口口③
口口④口
口口口⑤
口口口口
79
口口①口 |①---|
口③口口 |--②-|
口口①口 |----|
口口②② |③---|
80
2口①① |①---|
⑦⑦口③ |②-③-|
口口⑥⑥ |④-⑤-|
⑤⑤④③ |⑥-⑦-|
81
口∨①① |①---|
∨|∨口 |----|
|③|口 |③④--|
③⑤③口 |⑤---|

口口口口
口口口口
口4口口
4口4口
82
口>①∨ |①---|
口①口① |----|
口∧①< |②---|
口口口口 |③-④-|

口口2口
口2口2
口口2口
口口口口

口④>④
口∧③∨
口④<④
口口口口
83
口1口1 |----|
口口口③ |①---|
口1口1 |②---|
②③②口 |③---|
84
①④口口 |①---|
③⑤口⑥ |②---③-|
口④①② |④---|
③口口⑥ |⑤---⑥-|
85
口③口③ |①---|
⑤⑤①口 |②---|
口④口④ |③-④-|
②②①口 |⑤---|
86
②>①口 |①---|
口口口口 |②---|
②口口口 |③---|
口口口口 |④---|

口④2④
口口口∨
口口口③
口口口口

口口口口
口口口口
口口口4
口口口口
87
口口口口 |①---|
④③口② |②-③-|
∧口⑥⑤ |④---|
⑤①<② |⑤-------⑥---|

口口口口
4口口口
口口口口
口2口口
88
口①口① |①---|
口口⑦④ |--②③|
口③口∧ |④---|
口⑥②⑤ |⑤-⑥⑦|

口口口口
口口口5
口口口口
口口口口
89
⑥<>⑤ |①---|
①④口口 |②-③④|
∧⑦⑦口 |⑤-⑥-|
②口③口 |⑦---|

7口口7
2口口口
口口口口
口口口口
90
口③⑦口 |①---|
∨口④∨ |②-③④|
⑤⑧口① |⑤---|
口⑥②口 |⑥-⑦⑧|

口口口口
口口口口
6口口2
口口口口
91
口口⑤∨ |①---|
③④⑤① |(90)②-③④|
口⑤④③ |--⑤-|
口⑤口② |----|

口口口口
口口口2
口口口口
口口口口
最終更新:2022年04月07日 16:46