アットウィキロゴ
サヨナラ・ヘヴン (BEMANI SYMPHONY Arr.)
猫叉Master × Morrigan feat.Lily + gaQdan

EXTREME

Level: 9.3
BPM: 111
Notes(hold): 739(154)

1
①口口口 |----|
②口口口 |----|
口口口口 |----|
口①②口 |①-②-|
2
口口口口 |①-②③|
口口口口 |④⑤⑥⑦⑧---|
①<口① |⑨-⑩⑪|
口口口口 |⑫⑬⑭⑮⑯---|

口口口③
⑧④⑤口
2⑥⑦口
⑨口>⑨

⑪⑬⑫口
口口口⑯
口口口口
口⑮⑭⑩
3
口口口口 |①-②③|
口口口口 |④⑤⑥⑦⑧---|
①<口① |⑨---|
口口口口 |⑩-⑪-|

口口口③
⑧④⑤口
2⑥⑦口
⑨口口⑨

口口口⑩
口口口⑪
口口口口
口⑪⑩口
4
口口口口 |①-②③|
口口口口 |④⑤⑥⑦⑧---|
①<口① |⑨-⑩-|
口口口口 |⑪-⑫-|

③口口口
口⑤④⑧
2⑦⑥口
口口口口

口口>⑫
⑪<口口
口口>⑩
⑨<口口

口口口口
⑫口口口
口口口⑪
⑩口口口
5
口①<1 |①-②-|
口>②口 |③-④-|
口③<口 |⑤---|
口口④口 |⑥-⑦-|

口2口口
口⑤3口
口4口口
口口口口

⑥口口口
⑦口口口
口口口口
口⑥⑦口
6
口口口口 |①-②③|
口口口口 |④⑤⑥⑦⑧---|
①<口① |⑨-⑩⑪|
口口口口 |⑫⑬⑭⑮⑯---|

口口口③
⑧④⑤口
2⑥⑦口
⑨口>⑨

⑪⑬⑫口
口口口⑯
口口口口
口⑮⑭⑩
7
口口口口 |①-②③|
口口口口 |④⑤⑥⑦⑧---|
①<口① |⑨---|
口口口口 |⑩-⑪-|

口口口③
⑧④⑤口
2⑥⑦口
⑨口口⑨

口口口⑩
口口口⑪
口口口口
口⑪⑩口
8
口口口口 |①-②③|
口口口口 |④⑤⑥⑦⑧---|
①<口① |⑨-⑩-|
口口口口 |⑪-⑫-|

③口口口
口⑤④⑧
2⑦⑥口
口口口口

口口>⑫
⑪<口口
口口>⑩
⑨<口口

口口口口
⑫口口口
口口口⑪
⑩口口口
9
②口口1 |①---|
③口口口 |②---|
口∨∨口 |③---|
口①①口 |④---|

口口口口
口口口口
④<口口
口33口
10
口口口口 |①---|
口口口口 |②---|
1口口口 |③---|
①<口口 |④-⑤-|

口口口口
口口口∨
口口口③
2口口②

④⑤口口
④⑤口口
口口口4
口口口口
11
口口①< |①---|
口口①< |②---|
口口口口 |③-④-|
口口口口 |⑤-⑥-|

口口2口
口口2口
口∨∨口
口⑤③②

口口口口
口口口口
口口口口
口64口
12
①<口口 |①-②-|
口口>② |③-④-|
③<口口 |⑤-⑥-|
口口>④ |⑦-⑧-|

口>⑧口
口⑦<口
口>⑥口
口⑤<口

2口口口
口8口3
4口7口
口6口5
13
口口1口 |①---|
口口口口 |②---|
①――< |③---|
①――< |④---|

口口口口
口口口口
2口口②
2口口②

口口>③
口③>④
口④口口
口口口口

口口口4
口口口口
口口口口
口口口口
14
口口口口 |①---|
口口口1 |②---|
②口>① |③---|
②①口口 |④---|

③<口口
④<③口
口口④2
口口口口

4口口口
口口口口
口口口口
口口口口
15
口口口口 |①---|
1口口口 |②---|
①<口口 |③---|
口口①口 |④---|

口口口口
口④④口
2口口②
口③③②
16
④口口① |①-②-|
③⑤⑤② |③-④-|
②⑤⑤③ |⑤--⑥|
①口口④ |⑦-⑧⑨|

口口口⑧
口口口⑨
口口口口
⑥⑦口口
17
口口口口 |①-②③|
④③③口 |--④-|
口口>① |⑤---⑥-⑦⑧|
⑤<口口 |⑨-⑩-|

口口口口
口口口口
口口口2
6口口口

口口口口
⑩<口口
口⑨⑧⑦
口口口口
18
④口>⑤ |①-②-|
1③口口 |③-④-|
②口口口 |⑤---⑥-⑦⑧|
口①口口 |⑨---|

口口口6
口口口口
⑦⑧⑨口
口口口口
19
③口口⑤ |①---|
口口口② |②-③-|
口④―< |④--⑤|
①>⑦口 |⑥-⑦-|

口口口口
口口口口
口6口口
口口口口
20
口口口口 |①-②③|
①<>③ |-④⑤-|
⑤⑥< |⑥---|
口口1口 |⑦-⑧⑨|

口口口口
2口口4
口6口口
口口口口

⑦口口⑧
口口口⑨
口口7口
口口口口
21
口口口口 |①-②③|
④③③口 |--④-|
口口>① |⑤---⑥-⑦⑧|
⑤<口口 |⑨-⑩-|

口口口口
口口口口
口口口2
6口口口

口口口口
⑩<口口
口⑨⑧⑦
口口口口
22
④口>⑤ |①-②-|
1③口口 |③-④-|
②口口口 |⑤---⑥--⑦⑧|
口①口口 |⑨---|

口口口6
口口口口
⑦⑧⑨口
口口口口
23
③口口⑤ |①---|
口口口② |②-③-|
口④―< |④--⑤|
①>⑦口 |⑥-⑦-|

口口口口
口口口口
口6口口
口口口口
24
口口口口 |①-②③|
①<>③ |-④⑤-|
⑤⑥< |⑥-⑦-|
口口1口 |⑧⑨⑩⑪|

⑪口口口
2⑩口4
⑨67口
口⑧口口
25
口口①① |①--②|
④③②② |--③-|
∧∨口口 |④-⑤-|
③④口口 |⑥-⑦⑧|

口⑥⑤⑦
5口⑧口
口口口口
口5口口
26
口口口口 |①-②③|
口口口口 |-④⑤-|
③<>① |⑥-⑦-|
口口口口 |⑧-⑨⑩|

口口口口
口口口口
4∨∨2
口⑥⑤口

⑨⑧⑦口
口⑩口口
口口口口
口76口
27
口口口口 |①-②③|
口口口口 |-④⑤-|
①<>③ |⑥---⑦⑧⑨⑩|
口口口口 |⑪-⑫-|

口口口口
口口口口
2∨∨4
口⑤⑥口

⑧⑩口⑨
口口⑪口
口⑫口口
口67口
28
口口口口 |①-②③|
①口口口 |-④⑤-|
∧口口∨ |⑥-⑦-|
口口口① |⑧⑨⑩⑪|

口口口口
2口口③
∨口口∧
③口口2

口⑤⑥口
口∧∨4
口⑥⑤口
4口口口

口6口⑪
口口⑩口
口口6⑨
口⑦⑧口
29
①①口口 |①--②|
②②③④ |--③-|
口口∨∧ |④-⑤-|
口口④③ |⑥-⑦⑧|

⑦⑤⑥口
口⑧口5
口口口口
口口5口
30
口口口口 |①-②③|
口口口口 |-④⑤-|
①<>③ |⑥-⑦-|
口口口口 |⑧-⑨⑩|

口>⑥口
口口口口
2⑦⑧4
口⑤口口

口口7⑨
口口⑩口
口口口口
口口口口
31
口口口口 |①-②③|
口口口口 |-④⑤-|
③<>① |⑥---⑦⑧⑨⑩|
口口口口 |⑪-⑫-|

口口口口
口口口口
4∨∨2
口⑥⑤口

⑨口⑩⑧
口⑪口口
口口⑫口
口76口
32
⑦①口口 |①-②-③-|
②⑧④⑩ |④-⑤-⑥-|
⑨③⑪⑤ |⑦-⑧-⑨-|
口口⑥⑫ |⑩-⑪-⑫-|
33
口④口① |①-②-③-|
②⑤③⑥ |--④-⑤-|
⑥③⑤② |⑥---|
①口④口 |⑦-⑧-|

⑦口口口
⑧口口口
口口口口
口⑦⑧口
34
口口口口 |①-②③|
口口口口 |④⑤⑥⑦⑧---|
①<口① |⑨-⑩⑪|
口口口口 |⑫⑬⑭⑮⑯---|

口口口③
⑧④⑤口
2⑥⑦口
⑨口>⑨

⑪⑬⑫口
口口口⑯
口口口口
口⑮⑭⑩
35
口口口口 |①-②③|
口口口口 |④⑤⑥⑦⑧---|
①<口① |⑨---|
口口口口 |⑩-⑪-|

口口口③
⑧④⑤口
2⑥⑦口
⑨口口⑨

口口口⑩
口口口⑪
口口口口
口⑪⑩口
36
口口口口 |①-②③|
口口口口 |④⑤⑥⑦⑧---|
①<口① |⑨-⑩-|
口口口口 |⑪-⑫-|

③口口口
口⑤④⑧
2⑦⑥口
口口口口

口口>⑫
⑪<口口
口口>⑩
⑨<口口

口口口口
⑫口口口
口口口⑪
⑩口口口
37
口①<1 |①-②-|
口>②口 |③-④-|
口③<口 |⑤---|
口口④口 |⑥-⑦-|

口2口口
口⑤3口
口4口口
口口口口

⑥口口口
⑦口口口
口口口口
口⑥⑦口
38
口口口口 |①-②③|
口口口口 |④⑤⑥⑦⑧---|
①<口① |⑨-⑩⑪|
口口口口 |⑫⑬⑭⑮⑯---|

口口口③
⑧④⑤口
2⑥⑦口
⑨口>⑨

⑪⑬⑫口
口口口⑯
口口口口
口⑮⑭⑩
39
口口口口 |①-②③|
口口口口 |④⑤⑥⑦⑧---|
①<口① |⑨---|
口口口口 |⑩-⑪-|

口口口③
⑧④⑤口
2⑥⑦口
⑨口口⑨

口口口⑩
口口口⑪
口口口口
口⑪⑩口
40
口口口口 |①-②③|
口口口口 |④⑤⑥⑦⑧---|
①<口① |⑨-⑩-|
口口口口 |⑪-⑫-|

③口口口
口⑤④⑧
2⑦⑥口
口口口口

口口>⑫
⑪<口口
口口>⑩
⑨<口口

口口口口
⑫口口口
口口口⑪
⑩口口口
41
口①<1 |①-②-|
口>②口 |③-④-|
口③<口 |⑤---|
口口④口 |⑥-⑦-|

口2口口
口⑤3口
口4口口
口口口口

⑥口口口
⑦口口口
口口口口
口⑥⑦口
42
口口口口 |①-②③|
口口口口 |④⑤⑥⑦⑧---|
①<口① |⑨-⑩⑪|
口口口口 |⑫⑬⑭⑮⑯---|

口口口③
⑧④⑤口
2⑥⑦口
⑨口>⑨

⑪⑬⑫口
口口口⑯
口口口口
口⑮⑭⑩
43
口口口口 |①-②③|
口口口口 |④⑤⑥⑦⑧---|
①<口① |⑨---|
口口口口 |⑩-⑪-|

口口口③
⑧④⑤口
2⑥⑦口
⑨口口⑨

口口口⑩
口口口⑪
口口口口
口⑪⑩口
44
口口口口 |①-②③|
口口口口 |④⑤⑥⑦⑧---|
①<口① |⑨-⑩-|
口口口口 |⑪-⑫-|

③口口口
口⑤④⑧
2⑦⑥口
口口口口

口口>⑫
⑪<口口
口口>⑩
⑨<口口

口口口口
⑫口口口
口口口⑪
⑩口口口
45
口①<1 |①-②-|
口>②口 |③-④-|
口③<口 |⑤---|
口口④口 |⑥-⑦-|

口2口口
口⑤3口
口4口口
口口口口

⑥口口口
⑦口口口
口口口口
口⑥⑦口
46
口口口口 |①-②③|
口口口口 |④⑤⑥⑦⑧---|
①<口① |⑨-⑩⑪|
口口口口 |⑫⑬⑭⑮⑯---|

口口口③
⑧④⑤口
2⑥⑦口
⑨口>⑨

⑪⑬⑫口
口口口⑯
口口口口
口⑮⑭⑩
47
口口口口 |①-②③|
口口口口 |④⑤⑥⑦⑧---|
①<口① |⑨---|
口口口口 |⑩-⑪-|

口口口③
⑧④⑤口
2⑥⑦口
⑨口口⑨

口口口⑩
口口口⑪
口口口口
口⑪⑩口
48
口口口口 |①-②③|
口口口口 |④⑤⑥⑦⑧---|
①<口① |⑨-⑩-|
口口口口 |⑪-⑫-|

③口口口
口⑤④⑧
2⑦⑥口
口口口口

口口>⑫
⑪<口口
口口>⑩
⑨<口口

口口口口
⑫口口口
口口口⑪
⑩口口口
49
②口口1 |①---|
③口口口 |②---|
口∨∨口 |③---|
口①①口 |④---|

口口口口
口口口口
④<口口
口33口
50
口口口口 |①---|
口口口口 |②---|
1口口口 |③---|
①<口口 |④-⑤-|

口口口口
口口口∨
口口口③
2口口②

④⑤口口
④⑤口口
口口口4
口口口口
51
口口①< |①---|
口口①< |②---|
口口口口 |③-④-|
口口口口 |⑤-⑥-|

口口2口
口口2口
口∨∨口
口⑤③②

口口口口
口口口口
口口口口
口64口
52
①<口口 |①-②-|
口口>② |③-④-|
③<口口 |⑤---⑥⑦⑧⑨|
口口>④ |⑩-⑪-|

口口口口
口口口口
口口口口
口⑤<口

口>⑪口
口⑩<口
口⑧⑦⑥
口口⑨口

2口口口
口⑪口3
4口口口
口6口5
53
口口1口 |①---|
口口口口 |②---|
①――< |③---|
①――< |④---|

口口口口
口口口口
2口口②
2口口②

口口>③
口③>④
口④口口
口口口口

口口口4
口口口口
口口口口
口口口口
54
口口口口 |①---|
口口口1 |②---|
②口>① |③---|
②①口口 |④---|

③<口口
④<③口
口口④2
口口口口

4口口口
口口口口
口口口口
口口口口
55
口口口口 |①---|
1口口口 |②---|
①<口口 |③---|
口口①口 |④---|

口口口口
口④④口
2口口②
口③③②
56
④口口① |①-②-|
③⑤⑤② |③-④-|
②⑤⑤③ |⑤---|
①口口④ |⑥---|

口口⑥⑥
口口口口
口口口口
⑥⑥口口
最終更新:2022年04月07日 16:48