アットウィキロゴ
starmine (BEMANI SYMPHONY Arr.)
Ryu☆ × デビン木下 + gaQdan

EXTREME

Level: 9.3
BPM: 100-164
Notes(hold): 736(24)

1
口口口口 |----|
口口口口 |----|
口口口口 |----|
口口口口 |----|
2
口口②口 |①---|
①口⑤① |②---|
①口④① |③---|
口③口口 |④-⑤-|
3
①口口口 |--①-|
口③口③ |--②-|
口口口口 |③---|
口②口口 |----|
4
①口⑥口 |①-②-|
口口口⑧ |③-④-|
④③⑦口 |⑤-⑥-|
②口⑤口 |⑦-⑧-|
5
口①⑥口 |①-②-|
口③⑦⑧ |③-④-|
④口口口 |⑤-⑥-|
口②⑤口 |⑦-⑧-|
6
①口⑥口 |①-②-|
口口口⑧ |③-④-|
④③⑦口 |⑤-⑥-|
②口⑤口 |⑦-⑧-|
7
口①⑥口 |①-②-|
口③⑦⑧ |③-④-|
④口口口 |⑤-⑥-|
口②⑤口 |⑦-⑧-|
8
②⑤口口 |①---|
口口口口 |②---|
④③③④ |③---|
口①⑤口 |④-⑤-|
9
口口①④ |--①-|
口口④口 |--②-|
口②③口 |③---|
口①口③ |④---|
10
①口①口 |①---|
口口口口 |②---|
口③③口 |③---|
②口②口 |④-⑤-|

口口⑤口
口口口口
④口口④
口⑤口口
11
口①口⑤ |--①-|
③⑤⑤④ |--②-|
⑤②②口 |③-④-|
③口①④ |⑤---|
12
口②⑤口 |①---|
口口口口 |②---|
④③③④ |③---|
口⑤①口 |④-⑤-|
13
④①口口 |--①-|
口④口口 |--②-|
口③②口 |③---|
③口①口 |④---|
14
口①口① |①---|
口口口口 |②---|
口③③口 |③---|
口②口② |④-⑤-|

口⑤口口
口口口口
④口口④
口口⑤口
15
③口①③ |--①-|
口④⑤⑥ |--②-|
⑨⑧⑦口 |③-④⑤|
②①口② |⑥⑦⑧⑨|
16
④②口② |①---|
口口口⑤ |②---|
口口④③ |③---|
③①①口 |④-⑤-|
17
⑥③⑥口 |①-②-|
口口④口 |③-④-|
口口口口 |⑤---|
⑤①⑤② |⑥---|
18
④②④口 |①---|
口口口① |②---|
口口⑤③ |③---|
③①②口 |④-⑤-|
19
⑦③⑦④ |①-②-|
⑤口⑥② |③-④-|
口⑥口⑤ |⑤-⑥-|
口①口口 |⑦---|
20
④②口② |①---|
口口口⑤ |②---|
口口④③ |③---|
③①①口 |④-⑤-|
21
⑥③⑥口 |①-②-|
口口④口 |③-④-|
口口口口 |⑤---|
⑤①⑤② |⑥---|
22
口②口口 |①---|
口口口① |②---|
口口②口 |③---|
③①口③ |④-⑤-|

④口口口
口口⑤④
口口口口
口口口口
23
口③口② |①-②-|
⑦⑥⑦⑤ |③-④-|
⑤口⑥④ |⑤-⑥-|
口①口口 |⑦-⑧-|

口口口口
口口口口
口口口口
口⑧口⑧
24
⑤②⑤② |①---|
口口④③ |②---|
口①⑥口 |③-④-|
③口①口 |⑤-⑥-|
25
⑤③⑤② |①-②-|
口⑤口口 |③-④-|
口口口口 |⑤---|
口①④口 |⑥---|

口口口口
口口口口
口口⑥口
口⑥口⑥
26
②⑤⑤口 |①---|
口口④① |②---|
口口⑥③ |③-④-|
①③②口 |⑤-⑥-|
27
③⑦口② |①-②-|
⑥⑦⑤口 |③-④-|
口⑤⑦⑥ |⑤-⑥-|
①口⑦④ |⑦---|
28
②⑤②⑤ |①---|
口④口① |②---|
③⑥口口 |③-④-|
口①口③ |⑤-⑥-|
29
②⑤③⑤ |①-②-|
口口⑤口 |③-④-|
口口口口 |⑤---|
口④①口 |⑥---|

口口口口
口口口口
口⑥口口
⑥口⑥口
30
口⑤⑤② |①---|
①④口口 |②---|
③⑥口口 |③-④-|
口②③① |⑤-⑥-|
31
②口⑤③ |①-②-|
⑧⑥口⑤ |③-④-|
⑥⑧口⑦ |⑤-⑥-|
④口⑦① |⑦-⑧-|
32
口⑨⑧④ |①-②-|
口⑩⑦③ |③-④-|
⑤⑥口口 |⑤-⑥-|
②①口口 |⑦⑧⑨⑩|
33
口⑧⑨⑥ |①-②-|
口⑦⑩⑤ |③-④-|
③口②① |⑤-⑥-|
④口口口 |⑦⑧⑨⑩|
34
⑥⑨⑧口 |①-②-|
⑤⑩⑦口 |③-④-|
②①口③ |⑤-⑥-|
口口口④ |⑦⑧⑨⑩|
35
口口⑪⑦ |①-②-|
③⑫⑧④ |③-④⑤|
⑬⑨⑤口 |⑥⑦⑧⑨|
⑩⑥①② |⑩⑪⑫⑬|
36
④⑧⑨口 |①-②-|
③⑦⑩⑤ |③-④-|
口口口⑥ |⑤-⑥-|
口口①② |⑦⑧⑨⑩|
37
⑤⑨⑧口 |①-②-|
⑥⑩⑦口 |③-④-|
②①④口 |⑤-⑥-|
口口③口 |⑦⑧⑨⑩|
38
口⑧⑨口 |①-②-|
口⑦⑩⑤ |③-④-|
口④口⑥ |⑤-⑥-|
口③①② |⑦⑧⑨⑩|
39
①⑪口④ |①②③④|
⑤口口⑩ |⑤⑥⑦⑧|
⑨⑦②⑧ |⑨⑩⑪⑫|
口③⑥⑫ |⑬⑭⑮⑯|

⑮口⑭口
口⑬口口
口口⑯口
口口口口
40
口口口口 |----|
④③②口 |①---|
口口口口 |②-③-|
口①口口 |④---|
41
⑤②⑤② |①---|
口口④口 |②---|
口口⑥③ |③-④-|
③①①口 |⑤-⑥-|
42
⑤③⑤② |①-②-|
口⑤口口 |③-④-|
口口口口 |⑤---|
口①④口 |⑥---|

口口口口
口口口口
口口⑥口
口⑥口⑥
43
②⑤⑤口 |①---|
口口④① |②---|
口口⑥③ |③-④-|
①③②口 |⑤-⑥-|
44
③⑤口② |①-②-|
⑤⑦⑥⑦ |③-④-|
⑦口⑦⑥ |⑤-⑥-|
①口口④ |⑦---|
45
②⑤②⑤ |①---|
口④口口 |②---|
③⑥口口 |③-④-|
口①①③ |⑤-⑥-|
46
②⑤③⑤ |①-②-|
口口⑤口 |③-④-|
口口口口 |⑤---|
口④①口 |⑥---|

口口口口
口口口口
口⑥口口
⑥口⑥口
47
①⑤⑤② |①---|
①④口③ |②---|
②口③① |③-④-|
③②口① |⑤-⑥-|

口口口口
口口口口
口⑥口⑥
口口口口
48
②⑧⑤② |①-②-|
⑧⑥⑦⑤ |③-④-|
⑥口⑦口 |⑤-⑥-|
④③①口 |⑦-⑧-|
49
口口口口 |①---|
口③口口 |--②-|
②∨口∨ |③---|
口①口① |④---|

口口∨口
口口|口
口口④口
口4口4
50
②口口口 |----|
②①②① |①---|
口③1③ |②---|
口口③口 |③---|
51
口①口① |①---|
口∧②∧ |--②-|
口口③口 |③---|
口口口口 |④---|

口4口4
口④口④
口口口口
口口口口
52
口口①口 |--①-|
①口∧∨ |----|
∧∨口① |②---|
口①口口 |③-④-|

口口2口
2口口口
口口③2
口2④口
53
①口口① |①---|
∧②③∧ |--②-|
口口口口 |③---|
口口口口 |④---|

3口口3
口口口口
④口口④
口口口口
54
口口②口 |--①-|
口④③口 |----|
口①①口 |②---|
口∧∧口 |--③④|
55
口口口口 |①---|
①口口口 |----|
|11口 |②---|
∧口口口 |③---|

③口口③
2口口口
口口口口
口口口口
56
口口③口 |--①-|
④②②④ |-②--|
口③口口 |③--④|
①①①① |--⑤-|

口口口口
口口口口
口口口口
口⑤⑤口
57
①⑥③① |①--②|
⑥②②④ |--③-|
③⑥①③ |④-⑤-|
⑥口口⑤ |⑥---|
58
口口口口 |--①-|
口∨∨口 |----|
口||口 |②---|
口①①口 |③---|

口口口口
口口③②
口口口口
口口口口
59
口口口口 |①---|
①口口 |----|
口口口口 |②---|
口11口 |③---|

口口口③
口2③口
口口②③
口口③口
60
口①①口 |--①-|
口||口 |----|
口∧∧口 |----|
口口口口 |----|
61
①11① |①---|
②口口② |②---|
③口口③ |③---|
④口口④ |④---|
62
口④④口 |①---|
口③③口 |②---|
口②②口 |③---|
口①①口 |④---|
63
①口口③ |①-②-|
口⑦⑧口 |③-④-|
⑤②④⑥ |⑤-⑥-|
口口口口 |⑦-⑧-|
64
①口⑤② |①--②|
口口口③ |--③-|
④③④口 |④--⑤|
②⑤①④ |--⑥-|

⑥⑥口口
口口口口
口口口口
口口⑥口
65
⑬⑭⑮⑯ |①②③④|
①②③④ |⑤⑥⑦⑧|
⑤⑥⑦⑧ |⑨⑩⑪⑫|
⑨⑩⑪⑫ |⑬⑭⑮⑯|
66
口口口口 |①---|
③①①② |②---|
③口口② |③-④⑤|
口口口口 |⑥---|

口⑤④口
口口⑥口
口口口口
口口口口
67
口口口① |①---|
③口③口 |②---|
口③②口 |③---|
口②口② |④-⑤-|

口④④④
口口口口
口口口口
⑤口⑤口
68
①③口③ |--①-|
③①③② |--②-|
①口②口 |③---|
口④④② |④---|
69
②口①口 |①---|
口口④口 |②---|
口口口③ |③-④-|
①③口② |⑤-⑥-|

口⑤⑤口
口口口口
口口⑥口
口口口口
70
③⑤口② |①-②-|
⑤⑦⑥⑦ |③-④-|
⑦口⑦⑥ |⑤-⑥-|
①口口④ |⑦---|
71
②⑤②⑤ |①---|
口④口口 |②---|
③⑥口口 |③-④-|
口①①③ |⑤-⑥-|
72
②⑤③⑤ |①-②-|
口口⑤口 |③-④-|
口口口口 |⑤---|
口④①口 |⑥---|

口口口口
口口口口
口⑥口口
⑥口⑥口
73
口口③口 |①---|
①①口① |②-③-|
③口②③ |----|
口口口口 |④---|

口④口口
④――<
口④口口
④口口口
74
口口口口 |①---|
口口口口 |②---|
口口①③ |③---|
口口②④ |④---|
75
口口口④ |①-②-|
口口口③ |③-④-|
口①②口 |⑤-⑥-|
口口口口 |⑦-⑧-|

口口口口
8口⑧口
口⑦口口
口⑤⑥口
76
①口②⑧ |①②③④|
口③⑫口 |⑤⑥⑦⑧|
⑦⑨④⑥ |⑨⑩⑪⑫|
⑪⑤口⑩ |⑬⑭⑮-|

⑬口口口
⑮口口⑭
口口口口
口口口口
77
口①①口 |①---|
口①∧口 |----|
口∨①口 |----|
口①①口 |----|

口口口口
口口口口
口口口口
口口口口
78
口口口口 |----|
口口口口 |----|
口口口口 |----|
口口口口 |----|
79
口口口口 |----|
口口口口 |----|
口口口口 |----|
口口口口 |----|
80
口口口口 |①---|
口口口口 |②---|
口①②< |----|
口口口口 |----|
81
口口1① |①---|
口口口∧ |----|
口口1口 |----|
口1口口 |----|
82
口口口1 |①---|
口口口口 |----|
口口口口 |----|
口口口口 |----|
最終更新:2022年04月07日 16:51