アットウィキロゴ
Colorful Cookie (BEMANI SYMPHONY Arr.)
Lucky Vacuum × デビン木下 + gaQdan

EXTREME

Level: 9.6
BPM: 168
Notes(hold): 815(27)

1
①①∨∨ |①---|
|||| |----|
|||| |----|
∧∧①① |----|
2
口口口口 |----|
口口口口 |----|
口口口口 |----|
口口口口 |----|
3
11口④ |①---|
②①③口 |②-③-|
④口①② |④---|
口口11 |⑤-⑥-|

口口⑥口
口口口口
口口⑤口
⑤口口口
4
①口⑥④ |①---|
②口③口 |②-③-|
④口⑤② |④---|
⑤口口口 |⑤-⑥-|
5
①口⑥④ |①---|
②口③口 |②-③-|
④口⑤② |④---|
⑤口口口 |⑤-⑥-|
6
①④口口 |①---|
②口③口 |②-③-|
④口⑤② |④-⑤-|
⑥⑦口⑥ |⑥-⑦-|
7
①口①口 |①---|
②②口② |②---|
③③⑤① |③---|
④④④③ |④-⑤-|
8
①口①口 |①---|
②②口② |②---|
③③⑤① |③---|
④④④③ |④-⑤-|
9
①②③④ |①②③④|
⑤⑥⑦⑧ |⑤⑥⑦⑧|
⑨⑩⑪⑫ |⑨⑩⑪⑫|
⑬⑭⑮⑯ |⑬⑭⑮⑯|
10
①③⑥② |①---|
口口口口 |②---|
口口口⑥ |③-④⑤|
口⑤④口 |⑥---|
11
①口口① |①---|
②口③口 |②---|
③口②口 |③---|
口口口口 |④-⑤-|

口口口⑤
口口口口
口口口口
④口口④
12
①口口口 |①-②-|
③口④口 |③---|
④口③② |④---|
⑤口口⑤ |⑤---|
13
①口①口 |①---|
②口口③ |②---|
③口口② |③---|
口口口口 |④-⑤-|

口口⑤口
口口口口
口口口口
④口④口
14
①⑥⑥口 |①-②-|
③口口④ |③-④-|
⑤②口口 |⑤---|
⑥⑦⑤口 |⑥-⑦-|
15
①口口① |①---|
②口②口 |②---|
③口口① |③---|
口口③口 |④-⑤-|

口口口⑤
口口口口
口口口口
④口口④
16
①口口口 |①-②-|
③⑥⑦④ |③-④-|
⑤②口口 |⑤-⑥-|
⑦⑧口口 |⑦-⑧-|
17
①口口① |①---|
②口口口 |②---|
③口②口 |③---|
口口③口 |④-⑤-|

口口口④
口口⑤口
口⑤口口
④口口口
18
①⑥②口 |--①-|
口③口③ |--②-|
口⑦口⑤ |③-④⑤|
④②口① |⑥-⑦-|
19
①口口① |①---|
②②③② |②---|
③口①口 |③---|
口口③口 |④-⑤-|

口⑤口⑤
口口口口
口口口口
④口口④
20
①口⑧口 |①-②-|
③②⑤② |③-④-|
⑤④⑦④ |⑤-⑥-|
⑦口口⑥ |⑦-⑧-|
21
①①口① |①---|
②口②口 |②---|
③②③口 |③---|
口口口③ |④-⑤-|

口④④口
口口口口
口口口⑤
④口口口
22
①口⑧口 |①-②-|
③④②口 |③-④-|
⑤②④⑦ |⑤-⑥-|
⑦⑧⑥口 |⑦-⑧-|
23
①口口① |①---|
②口②① |②---|
③②③口 |③---|
口口③口 |④-⑤-|

口⑤口⑤
口口口口
口口口口
④口口④
24
①口口口 |①-②-|
③②口② |③-④-|
⑤④口④ |⑤-⑥-|
口口⑥口 |⑦-⑧-|

口口口口
口口⑦⑧
口口口口
⑦⑧口口
25
①口①① |①---|
②口口口 |②---|
③口②口 |③---|
口口③③ |④-⑤-|

⑤口口⑤
口④口口
口口口口
口口口口
26
口③②口 |①-②-|
口口口④ |③-④-|
口③②口 |⑤-⑥-|
口①口口 |⑦-⑧-|

口口口口
口口口口
口口口口
⑤―<口

口口口口
⑦―<口
口口口口
7口⑥口

口口口口
口口⑧口
口口口口
口口口口
27
口口口口 |①---|
1口口口 |②---|
①――< |③--④|
口口口① |⑤-⑥-|

口口口⑤
口④⑥③
口口口②
口口口口
28
①⑥⑤口 |①-②③|
⑩⑫⑪⑨ |④-⑤⑥|
1⑧⑦口 |⑦⑧⑨⑩|
口④③② |⑪⑫⑬⑭|

口口口口
口口口口
口口口口
⑭口口⑬
29
⑤口④① |①---|
口口口口 |②---|
口③口口 |③---|
⑤口②口 |④-⑤-|
30
口口口① |--①-|
口②⑤⑤ |--②-|
④④②口 |--③-|
口③③① |④-⑤-|
31
③⑤③⑦ |①-②-|
口口⑦口 |③-④-|
口⑥④② |⑤-⑥-|
①口⑧口 |⑦-⑧-|
32
③口④⑦ |①-②-|
口①⑧④ |③-④-|
⑥⑧②口 |⑤-⑥-|
⑤⑥口口 |⑦-⑧-|
33
③⑤③⑦ |①-②-|
口②⑦口 |③-④-|
口⑥④口 |⑤-⑥-|
口口⑧① |⑦-⑧-|
34
③口口⑦ |①-②-|
①⑥⑧口 |③-④-|
④口③② |⑤-⑥-|
口⑦口⑤ |⑦-⑧-|
35
③⑤③口 |①-②-|
口口口② |③-④-|
口⑥④口 |⑤-⑥-|
口口①口 |⑦-⑧-|

口口口⑦
口口⑦口
口口口口
口口⑧口
36
③口④口 |①-②-|
口③⑥口 |③-④-|
口⑤口② |⑤-⑥-|
①口口口 |⑦-⑧-|

口口口⑦
口口口口
口口口⑧
口口口口
37
②⑫⑦⑫ |①---②③④⑤|
③①⑧① |⑥---⑦⑧⑨⑩|
④⑬⑨⑬ |⑪---|
⑤⑥⑩⑪ |⑫-⑬-|
38
①口②口 |--①-|
⑤⑤口④ |--②-|
③口口口 |--③-|
①③②④ |④-⑤-|
39
③口③口 |①-②-|
口口口口 |③-④-|
口口④② |⑤-⑥-|
①口口口 |⑦-⑧-|

口⑤<口
口口口口
口⑥口口
口口口口

口7口⑦
口口⑦口
口口口口
口口⑧口
40
口口口口 |①-②-|
口①―< |③-④-|
口口②口 |⑤-⑥-|
口口口口 |⑦-⑧-|

③口④⑦
口3⑧④
⑥⑧口口
⑤⑥口口
41
③口③口 |①-②-|
口②口口 |③-④-|
口口④口 |⑤-⑥-|
口口口① |⑦-⑧-|

口⑤―<
口口口口
口⑥口口
口口口口

口7口⑦
口口⑦口
口口口口
口口⑧口
42
口口口口 |①-②-|
①―<口 |③-④-|
口口口② |⑤-⑥-|
口口口口 |⑦-⑧-|

③口⑧⑦
3⑥⑥④
④口③口
⑧⑦口⑤
43
③⑤口⑦ |①-②-|
口口⑧口 |③-④-|
②④口⑥ |⑤-⑥-|
口口①口 |⑦-⑧-|
44
口口口口 |①---|
①――< |②-③-|
口口口口 |--④-|
口口口口 |⑤-⑥-|

②⑤口⑤
2口⑥口
口②②口
口④口③
45
②④口⑥ |--①-|
口⑦口口 |②-③-|
①③口⑤ |④-⑤-|
口口口口 |⑥-⑦-|
46
口口口口 |①---|
――① |②-③-|
口口口口 |--④-|
口口口口 |⑤-⑥-|

②⑤口⑤
口口⑥2
口②②口
③口④口
47
①⑥①口 |①-②-|
口②⑤② |③-④-|
③⑤③口 |--⑤-|
口④⑥④ |⑥---|
48
――① |①---|
口口口口 |②---|
口口口口 |③---|
①口口口 |④---|

④口口口
③口口口
②口口口
口口口口
49
口④口口 |①---|
口③口口 |②---|
口②口口 |③---|
口①口口 |④---|
50
口口口1 |①②③④|
⑨⑩⑪⑫ |⑤⑥⑦⑧|
⑤⑥⑦⑧ |⑨⑩⑪⑫|
①②③④ |⑬⑭⑮⑯|

⑬⑭⑮⑯
口口口口
口口口口
口口口口
51
⑬⑭⑮⑯ |①②③④|
⑨⑩⑪⑫ |⑤⑥⑦⑧|
⑤⑥⑦⑧ |⑨⑩⑪⑫|
①②③④ |⑬⑭⑮⑯|
52
口⑦口口 |①-②-|
③口口口 |③-④-|
⑤⑧口⑥ |⑤-⑥-|
①④口② |⑦-⑧-|
53
⑤口③⑦ |①-②-|
②口①口 |③-④-|
⑥口④⑧ |⑤-⑥-|
口口口口 |⑦-⑧-|
54
⑦口口⑦ |①-②-|
①②①口 |③-④-|
⑤⑥⑤⑧ |⑤-⑥-|
⑧③④③ |⑦-⑧-|
55
口口口口 |--①-|
口①②口 |--②-|
③④⑤口 |--③-|
口②①口 |④-⑤-|
56
③口⑤④ |--①-|
口②口口 |②---|
口口口口 |③--④|
③⑤①④ |--⑤-|
57
⑤⑤口⑦ |--①②|
⑤①②口 |③④⑤-|
口③④⑥ |--⑥-|
⑦口⑥⑥ |--⑦-|
58
口②④口 |--①-|
口口①口 |②---|
口③⑤口 |③-④-|
口②④口 |--⑤-|
59
①⑤口③ |①---|
口②④口 |②-③-|
口④口口 |-④--|
①口⑤③ |⑤--⑥|

⑥口⑥口
口口口口
口口口口
口⑥口口
60
口③口① |----|
②口口口 |--①-|
口②口口 |--②-|
③口口① |③---|
61
④⑥①④ |--①-|
口口⑦口 |--②③|
口口③口 |④--⑤|
⑤②①⑤ |--⑥⑦|
62
口⑤③口 |①---|
口口口口 |②-③-|
①②④① |--④-|
口⑤③口 |⑤---|
63
口口③口 |①---|
①④口② |②---|
口口⑤口 |③④⑤⑥|
口⑥口口 |⑦⑧⑨⑩|

口口口⑦
⑧口口口
口口口⑨
⑩口口口
64
⑤②④口 |--①-|
口口①口 |②-③-|
口③口口 |④---|
⑤口④口 |⑤---|
65
⑤③④① |①---|
口口口口 |②-③-|
⑤②口口 |--④-|
⑤④③① |--⑤-|
66
④口口② |--①-|
口⑤③口 |②---|
口①口口 |③-④-|
④口口② |--⑤-|
67
⑤③①④ |①---|
口口口口 |②-③-|
口口②口 |--④-|
⑤③①④ |--⑤-|
68
口④②口 |--①-|
①⑤口③ |②---|
①口⑥③ |③-④-|
口④②口 |⑤-⑥-|
69
①③口① |①---|
口口②口 |②-③-|
口②口口 |--④-|
口口③口 |⑤-⑥-|

⑤口④口
口口口口
口口口口
口④口⑥
70
⑥口口① |①-②-|
⑤>④口 |③-④-|
口③口口 |⑤---|
②口口口 |⑥---|
71
④口口口 |①---|
③口口口 |②---|
②口口口 |③---|
①口口口 |④---|
72
口口口口 |①---|
口口1口 |----|
口口口口 |----|
①―<口 |----|
73
口口口口 |①---|
口口口口 |----|
口>―① |----|
1口口口 |----|
74
①――< |①---|
口④③② |--②③|
口口口1 |④---|
口口口口 |----|
75
口口口口 |①---|
口口口⑤ |--②③|
口④③② |④---|
口口①口 |⑤---|
76
口口口口 |①---|
口口口口 |--②③|
口④③② |④---|
口①①口 |----|
77
口口②口 |①---|
口③口口 |----|
口口④口 |②-③-|
口⑤口① |④-⑤-|
78
1口口① |①---|
②③④① |--②③|
口口口口 |④---|
口口口口 |----|
79
③口口② |①---|
③口口② |--②-|
口⑤⑥口 |③--④|
①①④④ |--⑤⑥|
80
④③②口 |①---|
口口口口 |--②③|
口口口① |④---|
口口口口 |----|
81
口口口口 |①---|
口①①口 |--②③|
口口口口 |④---|
②③④口 |----|
82
口口口口 |①---|
口>―① |②-③-|
口口口口 |④-⑤-|
口口口口 |⑥---|

⑥口口口
④⑤口口
②③口口
口口口口
83
口⑥⑤④ |①-②-|
口口③1 |--③-|
①―<口 |④-⑤-|
口口②口 |⑥---|
84
口口口口 |①---|
口口口口 |②-③-|
1口口口 |④-⑤-|
口>―① |⑥---|

⑥口口口
②⑤口口
口口口口
④③口口
85
口口口② |①-②-|
口口口口 |--③-|
口①―< |④-⑤-|
口口③1 |⑥---|

口口口口
―④口
口4口口
⑤⑥口口
86
①―<③ |①---|
口④1口 |--②-|
口口⑤② |③-④-|
口口口口 |⑤---|
87
口口④口 |①-②-|
口⑤②口 |--③-|
⑥口口③ |④-⑤-|
口口①口 |⑥---|
88
1⑥口口 |①---|
口④⑤口 |②-③-|
口②③口 |④-⑤-|
口>―① |⑥---|
89
口口口口 |①-②-|
口口口口 |③-④-|
①―<口 |⑤-⑥-|
口口口1 |⑦-⑧-|

口口③②
⑤④口⑥
口口⑦口
口⑧口口
90
――① |①---|
口口口口 |----|
1口口口 |----|
口口口口 |----|
91
口口口口 |----|
―①口 |①---|
口①―< |----|
①―<口 |----|
92
口口口口 |----|
口口口口 |----|
口口口口 |----|
口口口口 |----|
93
口口口口 |----|
口口口口 |----|
口口口口 |----|
口口口口 |----|
94
口口口口 |----|
口口口口 |----|
口口口口 |----|
口口口口 |----|
95
口口口1 |①---|
口口1口 |----|
口1口口 |----|
1口口口 |----|
最終更新:2022年04月07日 16:52