アットウィキロゴ
.Lachryma《Re:Queen’M》 (BEMANI SYMPHONY Arr.)
かねこちはる × Morrigan + gaQdan

EXTREME

Level: 10.3
BPM: 200
Notes(hold): 1079(80)

0
口口口口 |----|
口口口口 |----|
口口口口 |----|
口口口口 |----|
1
∨∨①① |①---|
口口口口 |--②-|
口口口口 |--③-|
①①口口 |④---|

口口口口
口②③④
④③②口
②②口口
2
口口口口 |①---|
①②口口 |②---|
口口②① |③---|
口口口口 |--④-|

③③∨∨
口口口口
口口口口
口口③③

口口口口
口口④口
口④口口
口口④④
3
口口口口 |--①-|
②③④① |②---|
①④③② |③---|
口口口口 |④---|
4
①①口口 |①---|
口口口口 |--②-|
口口口口 |--③-|
∧∧①① |④---|

②②口口
口③④②
②④③口
口口口口
5
口口口口 |①---|
①口口② |②---|
口口口① |③---|
②口口口 |----|

口口③③
口口口口
口口口口
口口∧∧
6
口口①① |①-②-|
①①口口 |③---|
口口②② |④---|
口口口口 |⑤---|

∨∨口口
口口④口
口口口口
③③⑤口
7
口口① |①---|
口口口口 |②-③-|
口口① |--④-|
①①口口 |⑤---|

口口口口
②③口口
④⑤口口
口口口口
8
①①口③ |①---|
口③③口 |②---|
口口口③ |③---|
④②②口 |④---|
9
④⑥①口 |①-②-|
⑥口口① |③---|
②③③⑤ |④---|
口②⑤口 |⑤-⑥-|
10
口口口口 |①---|
口口①口 |②---|
口口口口 |③---|
口口∧口 |④---|

口口口口
口口②口
口②口
口口口口

口∨口口
口口口口
口③③口
口口口口

口④口<
口口口口
口④口口
口口口口
11
口①口口 |①---|
口口口① |②---|
口口口口 |③---|
口口口∧ |④-⑤-|

口口口口
口口口②
口口口口
口②口

口口⑤④
口口口口
③口口<
口口③口
12
⑤口口口 |--①-|
口⑤②① |②---|
④口④口 |③---|
口③③④ |④-⑤-|
13
口③①① |①---|
③口②① |②---|
④②口口 |③---|
④④口口 |④---|
14
口口②口 |①---|
口①口② |②---|
口口①口 |③---|
口口口口 |--④-|

③口口<
③口口<
口口口口
口口口口

口口口口
口口④口
口④口口
口口口口
15
口口②② |--①-|
口①口口 |②---|
口口①口 |③---|
④口③③ |④---|
16
口口④④ |①---|
口③②① |--②-|
口②③① |--③-|
口口口口 |④---|
17
⑤口口口 |①-②-|
⑤⑥口⑤ |③-④-|
口③⑥④ |⑤---|
口②①① |--⑥-|
18
口②②② |--①-|
口口①口 |②---|
口①口口 |③---|
④③③③ |④---|
19
口⑦⑦⑧ |①-②-③-|
①②③口 |④-⑤-⑥-|
口⑥⑤④ |⑦---|
口口口⑧ |⑧---|
20
①口口口 |①---|
②③④⑤ |②③④⑤|
口口口口 |⑥-⑦-|
①口口口 |⑧-⑨-|

口⑥口口
口口口口
⑨口⑦口
口∧口口

口⑧口⑧
口口口口
口口口⑧
口口口口
21
口口口口 |①-②-|
②口口口 |③④⑤⑥|
口①口口 |⑦-⑧-|
⑥⑤④③ |⑨-⑩-|

口口⑦口
口⑧口口
口口口口
口口∧口

⑨口⑨口
口口口口
⑨口⑩口
口口口口
22
⑨⑩口① |①-②-|
⑨口⑧⑦ |③④⑤⑥|
口②口⑦ |⑦-⑧-|
⑥⑤④③ |⑨-⑩-|
23
口口①⑤ |①-②-|
口②⑤口 |③-④-|
⑦⑧③口 |⑤-⑥-|
口④口⑥ |⑦-⑧-|
24
⑥⑥⑧⑧ |①-②-|
⑥④⑤⑧ |③-④⑤|
口口②① |⑥--⑦|
③⑦⑦⑦ |--⑧-|
25
口④⑦口 |--①-|
③⑦④口 |②-③-|
⑦①②④ |④-⑤-|
⑤⑤⑥⑥ |⑥-⑦-|
26
口⑤口⑤ |①-②-|
③⑧⑥① |③-④-|
口④②口 |⑤-⑥-|
⑦口⑦口 |⑦-⑧-|
27
⑤③口③ |①--②|
口口口① |--③-|
②④②④ |④---|
⑤⑤⑤① |⑤---|
28
口口口口 |----|
①②③④ |①②③④|
口口口口 |⑤-⑥-|
口口口口 |⑦-⑧-|

∨口⑧⑥
口口口口
⑤口⑦口
口口口口
29
口②⑧口 |①-②-|
口⑥⑤口 |③-④-|
口①⑦口 |⑤-⑥-|
口④③口 |⑦-⑧-|
30
口口口口 |①-②-|
口口口口 |③-④-|
①>口① |⑤-⑥-|
口口口口 |⑦-⑧-|

②④口口
⑤口<口
口③口⑤
口口口⑥

口口口口
口口⑦口
口口口口
口口⑧口
31
口④③口 |①-②-|
口口口口 |③-④-|
口②①口 |⑤-⑥-|
口口口口 |⑦-⑧-|

口口⑤
⑤口口口
口口口口
⑥⑦⑧口
32
⑦⑦⑧⑦ |①-②-|
⑦③④② |③④⑤⑥|
①⑤⑥⑨ |⑦--⑧|
口⑧⑨⑨ |--⑨-|

33
口④口⑥ |--①-|
⑥⑤③④ |②-③-|
②④口⑥ |④--⑤|
①口口口 |--⑥-|
34
①口口口 |--①-|
⑤口②⑥ |②-③-|
⑦口口⑧ |④---|
③④④口 |⑤⑥⑦⑧|
35
口①①口 |①---|
⑦⑤④⑧ |②③④⑤|
⑨③②⑩ |⑥---|
⑥口口⑥ |⑦⑧⑨⑩|
36
①①②② |①-②-|
口⑤⑤口 |③-④-|
口③④口 |⑤---|
⑤③④⑤ |----|
37
口口口口 |----|
口口口③ |----|
口口②口 |--①-|
口①口口 |②-③-|
38
①口⑧⑤ |①-②-|
口②⑥口 |③-④-|
③⑦口口 |⑤-⑥-|
口口④口 |⑦-⑧-|
39
口口口⑥ |①-②-|
口①⑦③ |③-④-|
②⑧④口 |⑤-⑥-|
口⑤口口 |⑦-⑧-|
40
口口①口 |①-②-|
口②口口 |③-④-|
③口口口 |⑤---|
口口口④ |----|

口口口口
⑤口口<
口口口口
⑤口口<
41
口口① |----|
口口口口 |----|
口口① |①---|
口口口口 |----|
42
口③③① |----|
①②①口 |----|
口①②① |①-②-|
①口口口 |--③-|
43
②口口④ |①---|
④口口② |②-③-|
③口口⑤ |--④-|
⑤①①③ |⑤---|
44
口①②口 |①---|
口口口④ |②---|
③口<口 |③---|
口①②口 |④---|
45
口口口口 |①---|
口口①口 |②---|
口②口口 |③---|
口口口口 |④---|

口口口口
口∨口口
③口口口
口③口口

口口口口
口④口口
口口口口
口④口口
46
口>口① |①---|
口口口口 |②---|
口口口口 |③---|
口口口口 |④---|

口②口②
③口<口
口口口口
口口口口

口口口口
④口④口
口口口口
口口口口
47
口口口口 |①---|
口口口口 |②---|
口>口① |③---|
口口口口 |④---|

口口口口
口口口口
口②口②
③口<口

口口口口
口口口口
口口口口
④口④口
48
口口口口 |①---|
口①口口 |②---|
口口口口 |③---|
口∧口口 |④---|

口口口口
④②口口
口口③
口②口口
49
口③口口 |①---|
口口口口 |②---|
①∧口③ |③---|
②口口口 |④---|

口④口口
口口口口
口④口口
口口口口
50
口口①口 |①---|
口口口口 |②---|
口口∧口 |③---|
口口口口 |④---|

③口②口
口口口口
∧口②口
口口口④
51
③口口口 |①---|
口口口② |②---|
口口口① |③---|
口③口 |④---|

口口口口
口口口口
口口口口
④口口口
52
⑨口口⑩ |①②③④|
⑤⑥⑦⑧ |⑤⑥⑦⑧|
①②③④ |⑨---|
口口⑨⑩ |⑩---|
53
⑥②①④ |①-②-|
③③③口 |--③-|
⑥①②④ |--④-|
口⑤⑤口 |⑤-⑥-|
54
⑤②②口 |--①-|
④⑤口③ |②-③-|
口①①口 |④---|
③口口④ |⑤---|
55
口③③① |①-②-|
口⑤口口 |--③-|
口③③② |--④-|
④口⑥口 |⑤-⑥-|
56
口口口⑤ |--①-|
口口②① |②-③-|
③口口口 |④---|
口④口⑤ |⑤---|
57
⑥②①④ |①-②-|
③③③口 |--③-|
⑥①②④ |--④-|
口⑤⑤口 |⑤-⑥-|
58
口②②口 |--①-|
④⑤⑤③ |②-③-|
口①①口 |④---|
③口口④ |⑤---|
59
①口②① |①---|
④口口④ |②---|
口口口口 |③---|
②③③口 |④---|
60
④①口口 |①---|
口③③口 |②---|
口②②口 |③---|
④口口① |④---|
61
口①④③ |①---|
口口口② |②---|
④口口① |③---|
口②口③ |④---|
62
口③④口 |①---|
①口口② |②---|
④口口③ |③---|
口②①口 |④---|
63
③④④口 |①---|
口①②口 |②---|
口口③口 |③---|
②④④① |④---|
64
④口口③ |①---|
②④③① |②---|
①③④② |③---|
③口口④ |④---|
65
④②①③ |①---|
②④③① |②---|
①③④② |③---|
③①②④ |④---|
66
口口①口 |①---|
口口口① |----|
①口口口 |----|
口①口口 |----|
67
口口① |----|
②③口口 |----|
口口① |①---|
口口口口 |②-③-|
68
③③口口 |--①-|
口口口口 |②---|
①②口口 |③---|
口④④口 |④---|
69
口口③① |①---|
口①①③ |②---|
④⑤⑤① |③-④-|
②④口口 |⑤---|
70
①③口口 |①---|
③口口口 |②-③-|
口口口② |④---|
口口②口 |⑤---|

口口口口
口口④口
口口口口
口口∧口

口口口口
口口⑤口
口⑤口
口口口口
71
口∨口口 |①---|
口口口口 |②---|
口①①口 |③---|
口口口口 |④-⑤-|

口②口<
口口口口
口②口口
口口口口

口③口口
口口口③
口口口口
口口口∧

口口口口
口口⑤④
口口口口
口④口
72
口口口口 |①---|
口口口口 |②---|
①口口< |③---|
口口①口 |④⑤⑥⑦|

口④③③
口口⑤口
口⑥口口
口②⑦②
73
②口③③ |----|
口②④③ |①-②-|
①④①口 |③---|
口口口① |④---|
74
口①④口 |①---|
①③口④ |②---|
②口③口 |③---|
②②口口 |④---|
75
①口口< |①---|
①口口< |--②-|
口口口口 |--③-|
口口口口 |④---|

口口④④
口③②口
口②③口
口口口口
76
口口口口 |①---|
口口④③ |②---|
口④口③ |③---|
②口①① |--④-|
77
口口②② |--①-|
口①口口 |②---|
口⑤①⑥ |③-④-|
口④③③ |⑤-⑥-|
78
①④④④ |①---|
①②③① |--②-|
口③②口 |--③-|
口口口口 |④---|
79
③⑧⑦口 |①---|
口④⑤口 |②---|
口口口⑥ |③-④-⑤-|
②①①① |⑥-⑦-⑧-|
80
⑤口口④ |①-②-③-|
⑥⑦⑧⑨ |④---|
①口口口 |⑤---|
⑤②③④ |⑥⑦⑧⑨|
81
口①口口 |①-②-|
口口口口 |③-④-|
口口口口 |⑤-⑥-|
口∧口口 |⑦⑧⑨⑩|

口③口③
⑥口口口
④⑤②③
⑩⑨⑧⑦
82
口口①口 |①-②-|
口口口口 |③-④-|
口口口口 |⑤-⑥-|
口口∧口 |⑦⑧⑨⑩|

③口③⑤
口②口口
③⑥④口
⑩⑨⑧⑦
83
③④⑤口 |①-②-|
③⑥②① |③-④-|
口口⑦① |⑤-⑥-|
口⑧口口 |⑦-⑧-|
84
口口口① |①-②-|
口口①口 |③-④-|
③④口口 |⑤-⑥-|
口口口② |⑦-⑧⑨|

口口口口
口⑧⑨口
口口⑥⑤
⑦口口口
85
①①③③ |①--②|
①口口③ |--③-|
口口口口 |--④-|
口②②② |⑤-⑥-|

口口口口
⑥口口口
口④⑤口
口口口口
86
口①④口 |①-②-|
⑦④①⑤ |③-④-|
④⑧⑥① |⑤-⑥-|
②②③③ |⑦-⑧-|
87
口①口① |①-②-|
口④②口 |③-④-|
口口口口 |⑤--⑥|
③口③口 |--⑦-|

口⑦口⑦
口口口⑤
⑥口⑥口
口口口⑤
88
①口④口 |①-②-③-|
⑦⑤②口 |④-⑤-⑥-|
⑬③⑪⑧ |⑦-⑧-⑨-|
⑨⑫⑥⑩ |⑩⑪⑫⑬|
89
②①②① |①---|
④③①③ |②---|
口②④③ |③---|
④④③口 |④---|
90
②口口② |①---|
口口①口 |----|
①②口口 |②---|
口口口① |----|
91
口口口口 |①-②-|
①口<口 |③-④-|
口口口口 |⑤-⑥-|
口口口口 |⑦-⑧-|

口⑧⑦口
口口③口
口⑥⑤口
口口④②
92
口口① |①-②-|
①⑦⑧⑥ |③-④-|
⑤⑨⑩口 |⑤-⑥-|
②③④口 |⑦⑧⑨⑩|
93
①①②① |①--②|
①口⑥口 |--③-|
⑤口口③ |--④-|
④②③③ |⑤-⑥-|
94
④①口③ |①--②|
③②⑤① |--③-|
口①口③ |--④-|
⑥口口口 |⑤-⑥-|
95
⑦④⑧⑧ |①---|
⑥③口① |②-③-④-|
⑤②口口 |⑤-⑥-⑦-|
口口①① |⑧---|
96
口⑧口口 |①-②-③-|
口⑨③⑤ |④---|
口⑩②⑥ |⑤-⑥-⑦-|
④④①⑦ |⑧-⑨-⑩-|
97
口口①① |①---|
口口口口 |----|
口口口口 |----|
口口口口 |----|
98
②④①口 |①--②|
⑥①⑤③ |--③-|
③⑤①⑥ |④--⑤|
口①④② |--⑥-|
99
∨∨①① |①---|
口口口口 |--②-|
口口口口 |--③-|
①①口口 |④---|

口口口口
口②③④
④③②口
②②口口
100
口口口口 |①---|
①②口口 |②---|
口口②① |③---|
口口口口 |--④-|

③③∨∨
口口口口
口口口口
口口③③

口口口口
口口④口
口④口口
口口④④
101
口口口口 |--①-|
②③④① |②---|
①④③② |③---|
口口口口 |④---|
102
①①口口 |①---|
口口口口 |--②-|
口口口口 |--③-|
∧∧①① |④---|

②②口口
口③④②
②④③口
口口口口
103
口口口口 |①---|
①口口② |②---|
口口口① |③---|
②口口口 |④---|

口口③③
口口口口
④口口口
口口∧∧
104
口口①① |①-②-|
①①口口 |③---|
口口②② |④---|
口口口口 |⑤---|

∨∨口口
口口④口
口口口口
③③⑤口
105
口口① |①---|
②③口口 |②-③-|
口口① |--④-|
①①口口 |⑤---|

口口口口
口口口口
④⑤口口
口口口口
106
①①口③ |①---|
口③③口 |②---|
口口口③ |③---|
④②②口 |④---|
107
④⑥①口 |①-②-|
⑥口口① |③---|
②③③⑤ |④---|
口②⑤口 |⑤-⑥-|
108
口口口口 |①---|
口口①口 |②---|
口口口口 |③---|
口口∧口 |④---|

口口口口
口口②口
口②口
口口口口

口∨口口
口口口口
口③③口
口口口口

口④口<
口口口口
口④口口
口口口口
109
口①口口 |①---|
口口口① |②---|
口口口口 |③---|
口口口∧ |④-⑤-|

口口口口
口口口②
口口口口
口②口

口口⑤④
口口口口
③口口<
口口③口
110
口②口口 |--①-|
口④②① |②---|
④口③口 |③---|
口③④口 |④---|
111
口口① |①---|
口口口口 |----|
口口口口 |----|
口口口口 |----|
112
①④口口 |----|
口②口口 |----|
③口口口 |①-②-|
口口口口 |③-④-|
113
⑥口③① |①-②-|
口⑦①④ |(194)③-④-|
口②⑤口 |(180)⑤-⑥-|
口口口⑧ |(167)⑦-⑧-|
114
口口④口 |(154)①-②-|
②口口口 |(139)③-④-|
口口口口 |(127)⑤-⑥-|
口③①口 |(116)⑦-⑧-|

口⑤口口
口口⑥口
口⑦口口
口口⑧口
115
口口口口 |(152)----|
口口口口 |(200)----|
口口口口
口口口口
116
①口口< |①-②-|
口口口口 |③-④-|
口口口口 |⑤-⑥-|
口口① |⑦-⑧-|

口①②口
口③④口
口⑤⑥口
口⑦⑧口
117
口①②口 |①-②-|
口③④口 |③-④-|
口⑤⑥口 |⑤-⑥-|
口⑦⑧口 |⑦-⑧-|
118
口①②口 |①-②-|
口③④口 |③-④-|
口⑤⑥口 |⑤-⑥-|
口⑦⑧口 |⑦-⑧-|
119
①①口口 |①---|
口口口口 |----|
口口口口 |----|
口口口① |----|
最終更新:2022年04月07日 16:54