アットウィキロゴ
Noob実況24時!
ARM × かたほとり ft. ちょこ

BASIC

Level: 3
BPM: 178
Notes: 246

1
口口口口 |----|
口口口口 |----|
口口口口 |----|
口口口口 |----|
2
口口口口 |----|
口口口口 |----|
口口口口 |----|
口口口口 |----|
3
口口口口 |①---|
口口口口 |----|
口①②口 |②---|
口口口口 |----|
4
口口口口 |①---|
口口③口 |----|
口①②口 |②---|
口口口口 |③---|
5
口口口口 |①---|
口口口口 |----|
口①②口 |②---|
口口口口 |----|
6
口口口口 |①---|
口口③口 |----|
口①②口 |②---|
口口口口 |③---|
7
口口口口 |①---|
口口口口 |----|
口①②口 |②---|
口口口口 |----|
8
口口口口 |①---|
口口③口 |----|
口①②口 |②---|
口口口口 |③---|
9
②①①② |①---|
口口口口 |----|
口口口口 |②---|
口口口口 |----|
10
口口口口 |①---|
口②①口 |----|
口①②口 |②---|
口口口口 |----|
11
口口口口 |①---|
口口口口 |----|
口②口口 |②---|
口①口口 |----|
12
口②②口 |①---|
口①口口 |----|
口口口口 |②---|
口口口口 |----|
13
口口口口 |①---|
口口①口 |----|
口口②口 |②---|
口口口口 |----|
14
口口口口 |①---|
口口口口 |----|
②口口② |②---|
口①①口 |----|
15
口口口口 |①---|
口口口口 |----|
口口②口 |②---|
口口①口 |----|
16
口②②口 |①---|
口口①口 |----|
口口口口 |②---|
口口口口 |----|
17
口口口口 |①---|
口①口口 |----|
口②口口 |②---|
口口口口 |----|
18
口口口口 |①---|
口口口口 |----|
②口口② |②---|
口①①口 |----|
19
口口口口 |①---|
口口口口 |----|
口口②口 |②---|
口①口口 |----|
20
口②②口 |①---|
口①口口 |----|
口口口口 |②---|
口口口口 |----|
21
口口口口 |①---|
口口①口 |----|
口②口口 |②---|
口口口口 |----|
22
口口口口 |①---|
口口口口 |----|
②口口② |②---|
口①①口 |----|
23
口口口口 |①---|
口口口口 |----|
口②口口 |②---|
口口①口 |----|
24
口②②口 |①---|
口口①口 |----|
口口口口 |②---|
口口口口 |----|
25
①口口① |①---|
口②②口 |----|
口口口口 |②---|
口口口口 |----|
26
②口口② |①---|
①口口① |----|
口口口口 |②---|
口口口口 |----|
27
口口口口 |①---|
口①口口 |----|
口口口口 |②---|
口②口口 |----|
28
口口口口 |①---|
口①口口 |----|
口口口口 |②---|
口②口口 |----|
29
口口口口 |①---|
口①口口 |----|
口口口口 |②---|
口②口口 |----|
30
②口口② |①---|
口口口口 |----|
口①①口 |②---|
口口口口 |----|
31
口口口口 |①---|
口口①口 |----|
口口口口 |②---|
口口②口 |----|
32
口口口口 |①---|
口口①口 |----|
口口口口 |②---|
口口②口 |----|
33
口口口口 |①---|
口口①口 |----|
口口口口 |②---|
口口②口 |----|
34
口口口口 |①---|
口①①口 |----|
口①①口 |----|
口口口口 |----|
35
口口口口 |①---|
口口口口 |----|
口②②口 |②---|
口①①口 |----|
36
②口口② |①---|
口口口口 |----|
①口口① |②---|
口口口口 |----|
37
口①①口 |①---|
口②②口 |----|
口口口口 |②---|
口口口口 |----|
38
口口口口 |①---|
①口口① |----|
口口口口 |②---|
②口口② |----|
39
口口口口 |①---|
口口口口 |----|
口②②口 |②---|
口①①口 |----|
40
口①②口 |①---|
口①②口 |----|
口口口口 |②---|
口口口口 |----|
41
口口口口 |①---|
口口口口 |----|
口②②口 |②---|
口①①口 |----|
42
②口口① |①---|
②口口① |----|
口口口口 |②---|
口口口口 |----|
43
口口口口 |①---|
口①①口 |----|
口①①口 |----|
口口口口 |----|
44
口口口口 |----|
口口口口 |----|
口口口口 |----|
口口口口 |----|
45
口口口口 |①---|
①口口口 |----|
口口口口 |----|
口口口口 |----|
46
口口口口 |----|
口口口口 |----|
口口口口 |----|
口口口口 |----|
47
口口口口 |①---|
口口口① |----|
口口口口 |----|
口口口口 |----|
48
口口口口 |----|
口口口口 |----|
口口口口 |----|
口口口口 |----|
49
口口口口 |①---|
①口口口 |----|
口口口口 |----|
口口口口 |----|
50
口口口口 |----|
口口口口 |----|
口口口口 |----|
口口口口 |----|
51
口口口口 |①---|
口口口口 |----|
①①①① |----|
口口口口 |----|
52
口口口口 |----|
口口口口 |----|
口口口口 |----|
口口口口 |----|
53
口口口口 |①---|
①②口① |----|
口口口口 |----|
口口口口 |--②-|
54
口口口口 |--①-|
口口①口 |----|
口口②口 |②---|
口②口口 |----|
55
口口①口 |①---|
④①口④ |--②-|
口③②口 |--③-|
口口口口 |--④-|
56
口口口口 |----|
②口口② |----|
口口口口 |①---|
口①①口 |--②-|
57
口口①口 |----|
口②口口 |①---|
口口③口 |②---|
口口口口 |③---|
58
口口口口 |①---|
口口口① |----|
口口口口
口口口口

口口口口
③口口③
口口口口 |②---|
口②②口 |--③-|
59
口①口口 |----|
口口②口 |①---|
口③口口 |②---|
口口口口 |③---|
60
口口口口 |①---|
①③口口 |----|
口口③口 |②---|
口②②口 |--③-|
61
口口口口 |----|
口口②口 |----|
口②口口 |①---|
口①①口 |--②-|
62
①口口① |----|
口口口口 |----|
②②口口 |①---|
口口口口 |--②-|
63
口口口① |----|
口口口① |----|
口口②② |①---|
口口口口 |--②-|
64
①口口口 |----|
①口口口 |----|
口②②口 |①---|
口口口口 |--②-|
65
口口口口 |----|
口口口口 |----|
口口口口 |----|
口①①口 |--①-|
66
口口口口 |----|
口口口口 |----|
口①①口 |----|
口口口口 |--①-|
67
口口口口 |----|
口口口口 |----|
①口口口 |----|
口口口口 |--①-|
68
口口口口 |--①-|
口①口③ |--②-|
口口②口 |--③-|
口口口口 |----|
69
口②①口 |①---|
口④③口 |②---|
口口口口 |③---|
口口口口 |④---|
70
口口口口 |①---|
口口口口 |②---|
口②①口 |③---|
口④③口 |④---|
71
口口口口 |①---|
②②②② |----|
①口口① |----|
口口口口 |--②-|
72
口口口口 |----|
口口口口 |----|
口口口口 |----|
口①①口 |--①-|
73
口口口② |----|
口①①② |①---|
口口口口 |②---|
口③③口 |--③-|
74
②口口口 |----|
②①①口 |①---|
口③③口 |②---|
口③③口 |--③-|
75
口口口口 |----|
口口口口 |----|
口口口口 |----|
口口口口 |----|
76
口口口口 |①---|
①口口② |----|
口口口口 |②---|
口口口口 |----|
77
①①①① |①---|
口口口口 |----|
口②②口 |----|
口口口口 |--②-|
78
口口口口 |----|
口口口口 |----|
①口口① |----|
口口口口 |--①-|
79
①口口① |----|
口口口口 |----|
口口口口 |----|
口口口口 |--①-|
80
口口口口 |----|
口口口口 |----|
口口②口 |----|
口口口① |①-②-|
81
口口口口 |----|
口口④口 |①-②-|
口②口③ |----|
①口口口 |③-④-|
82
④③③④ |----|
口②口口 |①-②-|
①口口口 |----|
口口口口 |③-④-|
83
口口口口 |----|
口口①口 |----|
口①口口 |----|
口口口口 |--①-|
84
口口口口 |----|
口①口口 |--①-|
口口①口 |----|
口口口口 |----|

accuracy: 100%
最終更新:2022年07月22日 15:11