アットウィキロゴ
Noob実況24時!
ARM × かたほとり ft. ちょこ

ADVANCED

Level: 6
BPM: 178
Notes: 394

1
口口口口 |----|
口口口口 |----|
口口口口 |----|
口口口口 |----|
3
口口口口 |①---|
①①口口 |----|
口口口口 |②---|
口口②口 |----|
4
口口口口 |①---|
口口①① |----|
口口口口 |②---|
口②口口 |----|
5
口口口口 |①---|
①口口口 |----|
①口口口 |②---|
口口②口 |----|
6
口口口口 |①---|
口口口① |----|
口口口① |②---|
口②口口 |----|
7
口口口口 |①---|
①①口口 |----|
口口口口 |②---|
口口②口 |----|
8
口口口口 |①---|
口口①① |----|
口口口口 |②---|
口②口口 |----|
9
口口口口 |①---|
①口口② |----|
口口口口 |②---|
口口口口 |----|
10
口①①口 |①---|
口口口口 |----|
口②②口 |②---|
口②②口 |----|
11
口口口口 |①---|
①口②口 |②---|
③口④口 |③---|
口⑤口口 |④-⑤-|
12
①口口① |----|
口口口口 |--①-|
口口口口 |----|
口口口口 |----|
13
口口口口 |①---|
口①③口 |②---|
口②④口 |③---|
口口口口 |④---|
14
③口口③ |①---|
口口口口 |②---|
②④④② |③---|
口①①口 |④---|
15
口口口口 |①---|
口②口① |②---|
口④口③ |③---|
口口⑤口 |④-⑤-|
16
①口口① |----|
口口口口 |--①-|
口口口口 |----|
口口口口 |----|
17
口口口口 |①---|
口③①口 |②---|
口④②口 |③---|
口口口口 |④---|
18
③①①③ |①---|
口口口口 |--②-|
口口口口 |----|
口②②口 |③---|
19
口口口口 |①---|
①口②口 |②---|
③口④口 |③---|
口⑤口口 |④-⑤-|
20
①口口① |----|
口口口口 |--①-|
口口口口 |----|
口口口口 |----|
21
口口口口 |①---|
口①③口 |②---|
口②④口 |③---|
口口口口 |④---|
22
③口口③ |①---|
口口口口 |②---|
②④④② |③---|
口①①口 |④---|
23
口口口口 |①---|
①口口③ |②---|
口口⑤口 |③---|
②口口④ |④-⑤-|
24
①口口① |----|
口口口口 |--①-|
口口口口 |----|
口口口口 |----|
25
口口口口 |①---|
③③口口 |--②-|
①①②② |----|
口口口口 |③---|
26
②口口② |--①-|
口口①① |----|
口③③口 |②---|
口口口口 |③---|
27
口口口口 |①---|
口③口口 |②---|
②④口口 |③---|
口①口口 |④---|
28
口口口口 |①---|
口口③口 |②---|
口口④② |③---|
口口①口 |④---|
29
口口口口 |①---|
口③口口 |②---|
②④口口 |③---|
口①口口 |④---|
30
口②③口 |①---|
①口口④ |②---|
口口口口 |③---|
口口口口 |④---|
31
口口口口 |①---|
口②口口 |②---|
③口①口 |③---|
口④口口 |④---|
32
口口口口 |①---|
口口②口 |②---|
口①口③ |③---|
口口④口 |④---|
33
口口口口 |①---|
口②口口 |②---|
③口①口 |③---|
口④口口 |④---|
34
口口口口 |①---|
口④③口 |②---|
口①②口 |③---|
口口口口 |④---|
35
①①口口 |①---|
口口口口 |----|
②②口口 |②---|
口口口口 |----|
36
口口口口 |①---|
②口②口 |----|
口口口口 |②---|
①①口口 |----|
37
口口①① |①---|
口口口口 |----|
口口②② |②---|
口口口口 |----|
38
口口口口 |①---|
口②口② |----|
口口口口 |②---|
口口①① |----|
39
口①①口 |①---|
口口口口 |----|
口②②口 |②---|
口口口口 |----|
40
②口口口 |①---|
口②口口 |----|
口口口口 |②---|
口①①口 |----|
41
口①①口 |①---|
口口口口 |----|
口②②口 |②---|
口口口口 |----|
42
口口口② |①---|
口口②口 |----|
口口口口 |②---|
口①①口 |----|
43
口②口口 |①---|
口口口口 |--②-|
口①③口 |----|
口口口口 |③---|
44
口口口口 |--①-|
口口③口 |----|
①③口口 |②---|
口②口口 |③---|
45
口口②口 |①---|
口口口口 |--②-|
口③①口 |----|
口口口口 |③---|
46
口口口口 |--①-|
口③口口 |----|
口口③① |②---|
口口②口 |③---|
47
口②口口 |①---|
口口口口 |--②-|
口①③口 |----|
口口口口 |③---|
48
口口口口 |--①-|
口口③口 |----|
①③口口 |②---|
口②口口 |③---|
49
口口②口 |①---|
口口口口 |--②-|
口③①口 |----|
口口口口 |③---|
50
口口口口 |--①-|
口③口口 |----|
口口③① |②---|
口口②口 |③---|
51
①口口② |①---|
④⑤口③ |②---|
口口口口 |③---|
口口口口 |④-⑤-|
52
口口口口 |--①-|
口口口口 |--②-|
②③口① |③---|
口④④口 |④---|
53
①口口① |①---|
④口②④ |--②-|
③口口口 |--③-|
口口口口 |--④-|
54
①口⑥① |--①-|
口⑤④口 |--②-|
口③②口 |③-④-|
口口口口 |⑤-⑥-|
55
③①口② |①---|
③口口② |--②-|
口口口口 |--③-|
口④④口 |--④-|
56
②口口② |----|
口口①口 |----|
口①口口 |①---|
口口口口 |--②-|
57
口口口口 |--①-|
口⑦口④ |②-③-|
口⑥⑤③ |④-⑤-|
口①②口 |⑥-⑦-|
58
⑤口口⑤ |--①-|
④口口④ |②-③-|
口口口口 |--④-|
口③②① |--⑤-|
59
口口口口 |--①-|
④口⑦口 |②-③-|
③⑤⑥口 |④-⑤-|
口②①口 |⑥-⑦-|
60
口口口口 |--①-|
口口口④ |②-③-|
口口④口 |----|
①②③口 |--④-|
61
口口口口 |----|
③口口口 |①---|
②③口② |②---|
口①①口 |--③-|
62
口①①③ |----|
口口口③ |①---|
口口②口 |②---|
口②口口 |--③-|
63
③①①口 |----|
③口口口 |①---|
口口口口 |②---|
口②②口 |--③-|
64
③②②③ |----|
口口口口 |①---|
口口口口 |②---|
①口口① |--③-|
65
口口口口 |--①-|
口⑦口④ |②-③-|
口⑥⑤③ |④-⑤-|
口①②口 |⑥-⑦-|
66
⑤口口⑤ |--①-|
④口口④ |②-③-|
口口口口 |--④-|
口③②① |--⑤-|
67
口口口⑦ |--①-|
④口⑦口 |②-③-|
③⑤⑥口 |④-⑤-|
口②①口 |⑥-⑦-|
68
①③②口 |--①-|
③①口② |--②-|
口口口口 |--③-|
口口口口 |----|
69
②口口② |①---|
口④③口 |②---|
口④③口 |③---|
口①①口 |④---|
70
口①①口 |①---|
口口口口 |--②-|
口口口口 |----|
③②②③ |③---|
71
①①①① |①---|
口②口口 |----|
口口②口 |----|
口口口口 |--②-|
72
口④③⑤ |----|
口口⑤口 |①-②-|
口口口口 |--③-|
口②①口 |④-⑤-|
73
③口②口 |----|
口③口② |①---|
口口口口 |②---|
口①①口 |--③-|
74
④②口④ |----|
②④④口 |①---|
口③③口 |②---|
口①①口 |③-④-|
75
口口口口 |----|
口口口口 |----|
①口口① |----|
口口口口 |--①-|
76
口③②口 |--①-|
口①④口 |②-③-|
口⑤口口 |④-⑤-|
口⑦⑥口 |⑥-⑦-|
77
④口口② |①---|
口口口口 |②---|
①口③① |③---|
口口口口 |--④-|
78
口口口口 |----|
口口口口 |①---|
口口②口 |----|
①②口① |--②-|
79
口口①口 |----|
口①口口 |----|
口口口口 |----|
口口口口 |--①-|
80
②②口口 |----|
口口①① |----|
口口口口 |----|
口口口口 |①-②-|
81
口口口口 |----|
②②口口 |①-②-|
④④①① |----|
口口③③ |③-④-|
82
④④④④ |----|
②②③③ |①-②-|
口口①① |----|
口口口口 |③-④-|
83
口口口① |----|
口口①口 |----|
口①口口 |----|
口口口口 |--①-|
84
①口口口 |----|
口①口口 |--①-|
口口①口 |----|
口口口口 |----|

accuracy: 100%
最終更新:2022年07月22日 15:19