アットウィキロゴ
Noob実況24時!
ARM × かたほとり ft. ちょこ

EXTREME

Level: 9.7
BPM: 178
Notes: 749

1
口口口口 |----|
口口口口 |----|
口口口口 |----|
口口口口 |----|
2
口口口口 |----|
口口口口 |----|
口口口口 |----|
口口口口 |----|
3
①口①口 |①-②-|
口②口口 |--③-|
口口口口 |----|
口口③口 |----|
4
口①口① |①-②-|
口口②⑤ |--③-|
口口⑥口 |--④-|
口③口④ |⑤-⑥-|
5
①口①口 |①-②-|
口②口口 |--③-|
口口口口 |----|
口口③口 |----|
6
口①口① |①-②-|
口口②⑤ |--③-|
口口⑥口 |--④-|
口③口④ |⑤-⑥-|
7
①口口口 |①-②-|
口②口口 |--③-|
①口口③ |----|
口口口口 |----|
8
口口口口 |①-②-|
①口口③ |--③-|
口②⑥口 |--④-|
①⑤口④ |⑤-⑥-|
9
①①口口 |①---|
口①口② |----|
①口口② |②---|
口口口口 |----|
10
口口口② |①---|
口①①② |----|
口口口口 |②---|
①②②① |----|
11
口①⑤⑩ |①-②③|
①口⑩⑤ |④-⑤-|
⑨④③② |⑥⑦⑧-|
⑥⑦⑧口 |⑨-⑩-|
12
③③③口 |--①-|
④②口口 |②-③-|
⑤口①口 |--④-|
口⑥口口 |⑤-⑥-|
13
口口⑧口 |①②③-|
⑤⑦③口 |--④-|
⑨②⑥口 |⑤-⑥⑦|
④口①口 |⑧-⑨-|
14
⑥口口⑦ |①-②-|
口⑤④口 |③-④-|
口口口③ |⑤-⑥-|
⑧①②口 |⑦-⑧-|
15
⑩⑤①口 |①-②③|
⑤⑩口① |④-⑤-|
②③④⑨ |⑥⑦⑧-|
口⑧⑦⑥ |⑨-⑩-|
16
口③③③ |--①-|
口口②④ |②-③-|
口①口⑤ |--④-|
口口⑥口 |⑤-⑥-|
17
②⑩口⑨ |①-②③|
③口口⑧ |④-⑤-|
④⑥口⑦ |⑥-⑦⑧|
口①口⑤ |⑨-⑩-|
18
口口①口 |①-②-|
⑥①②⑤ |③-④-|
口口③口 |--⑤-|
⑤③④⑥ |⑥---|
19
⑤口口① |①-②③|
口⑤①口 |④-⑤-|
口④③②
口口口口

口口口⑩
口口⑩口
⑨口口口 |⑥⑦⑧-|
⑥⑦⑧口 |⑨-⑩-|
20
③③③口 |--①-|
④②口口 |②-③-|
⑤口①口 |--④-|
口⑥口口 |⑤-⑥-|
21
口③⑧口 |①-②③|
⑤⑦②口 |--④-|
⑨口⑥口 |⑤-⑥⑦|
④口①口 |⑧-⑨-|
22
⑥口口⑦ |①-②-|
口⑤④口 |③-④-|
口口口③ |⑤-⑥-|
⑧①②口 |⑦-⑧-|
23
⑤①②④ |①---|
②④⑤① |②---|
口口口口 |③-④-|
口③③口 |--⑤-|
24
口②②口 |--①-|
②④口口 |--②-|
口①①口 |--③-|
③口⑤① |④-⑤-|
25
口口口口 |①-②-|
⑤⑦③① |③-④-|
口口口口 |⑤-⑥-|
⑥④⑧② |⑦-⑧-|
26
口④②④ |①-②-|
③口⑤① |--③-|
⑤⑤③口 |④---|
口⑤口口 |⑤---|
27
口口②④ |①-②-|
③口⑤① |-③--|
⑥⑥口① |④--⑤|
口口②口 |--⑥-|
28
口口①③ |--①-|
②口④口 |-②--|
⑤⑤口口 |③--④|
口口①口 |--⑤-|
29
口口①③ |--①-|
②口④口 |-②--|
⑤⑤口口 |③--④|
口口①口 |--⑤-|
30
⑤口⑥口 |①②③④|
口③口④ |⑤⑥⑦⑧|
口口口口
⑦①⑧②

口⑪口⑫
⑨口⑩口
⑬口⑮口 |⑨⑩⑪⑫|
口⑭口口 |⑬⑭⑮-|
31
④口②口 |①-②-|
口⑤口① |-③--|
口③⑥① |④--⑤|
口口口② |--⑥-|
32
③口①口 |--①-|
口④口口 |-②--|
口②⑤口 |③--④|
口口口① |--⑤-|
33
③口①口 |--①-|
口④口口 |-②--|
口②⑤口 |③--④|
口口口① |--⑤-|
34
口⑥口⑤ |①②③④|
④口③口 |⑤⑥⑦⑧|
口口口口
②⑧①⑦

⑫口⑪口
口⑩口⑨
口⑮口⑬ |⑨⑩⑪⑫|
口口⑭口 |⑬⑭⑮-|
35
口②口② |①---|
①口①口 |②---|
①⑤①④ |③-④-|
口③口⑥ |⑤-⑥-|
36
⑤⑥⑥口 |①-②-|
③口②口 |③-④-|
①口④口 |⑤---|
⑤口⑥⑥ |⑥---|
37
⑧口口口 |①-②-|
②⑦口① |③-④-|
⑥口③① |⑤-⑥-|
④⑤口口 |⑦-⑧-|
38
口②①口 |①---|
②口口③ |②---|
④②③⑤ |③---④-|
口口口③ |--⑤---|
39
③口口⑤ |①-②-|
口②⑥口 |③---|
口口口口 |④---|
④①①④ |⑤-⑥-|
40
⑥⑤口⑥ |①-②-|
口⑤口⑤ |③-④-|
②③④⑤ |⑤---|
口①①口 |⑥---|
41
⑥口⑥口 |①-②-|
⑤口⑤口 |③-④-|
③④③口 |⑤---|
①②①口 |⑥---|
42
⑥⑤口④ |①-②-|
⑤③口④ |③-④-|
⑦③②② |⑤---⑥-|
口口①① |--⑦---|
43
口口②② |①---|
口口口口 |--②-|
③③①① |----|
口口①① |③---|
44
③③口③ |--①-|
口口口口 |----|
口口口口 |②---|
②②①① |③---|
45
口口口口 |①---|
口口口口 |--②-|
口口③③ |----|
②②①① |③---|
46
③口③③ |--①-|
口口口口 |----|
①①口口 |②---|
口口②② |③---|
47
口口口口 |①---|
口口③③ |--②-|
①①②② |----|
口口口口 |③---|
48
③③口③ |--①-|
①①口口 |----|
口口口口 |②---|
②②口口 |③---|
49
口口口口 |①---|
③③口口 |--②-|
②②①① |----|
口口口口 |③---|
50
③口③③ |--①-|
口口①① |----|
口口口口 |②---|
口口②② |③---|
51
口①口口 |①---|
①②口口 |②---|
口③⑤口 |③---|
③④口⑤ |④-⑤-|
52
⑦口②口 |--①-|
⑤⑥口② |--②-|
③④口① |③④⑤⑥|
口口口口 |⑦---|
53
口口口口 |①---|
口口口② |--②-|
口口口口
①①①①

口口口口
口③④口
口口口口 |--③-|
⑤⑤⑤⑤ |④-⑤-|
54
⑥口口③ |--①-|
口⑤④② |--②-|
①①①① |③-④-|
口口口口 |⑤-⑥-|
55
④④③③ |①---|
③③④④ |--②-|
②②②② |--③-|
①①①① |--④-|
56
②口口② |----|
口口口口 |----|
①②②① |①---|
①口口① |--②-|
57
口②①口 |--①-|
④⑤⑦③ |②-③-|
③⑦⑥④ |④-⑤-|
口①②口 |⑥-⑦-|
58
⑤①②⑤ |----|
②③④① |①-②-|
①⑤⑤② |--③-|
口②①口 |④-⑤-|
59
口①②口 |--①-|
③⑦⑤④ |②-③-|
④⑥⑦③ |④-⑤-|
口②①口 |⑥-⑦-|
60
②②①① |--①-|
③④口③ |②-③-|
③口④③ |----|
①①②② |--④-|
61
口⑦口① |--①-|
⑥口②口 |②-③-|
⑤③口口 |④-⑤-|
④口口口 |⑥-⑦-|
62
③口①⑥ |①-②-|
口④⑤② |③---|
口⑤④③ |④-⑤-|
口口口⑥ |--⑥-|
63
⑦口③口 |--①-|
④口口口 |②-③-|
口⑥⑤② |④-⑤-|
⑦①口口 |⑥-⑦-|
64
⑥③口⑥ |--①-|
⑤④⑤④ |②-③-|
②⑤④口 |④-⑤-|
口口①口 |--⑥-|
65
口口口⑦ |--①-|
口⑥⑤⑦ |②-③-|
④口口① |④-⑤-|
口②③口 |⑥-⑦-|
66
口口口⑥ |--①-|
口⑤口⑥ |②-③-|
口①②④ |--④-|
口③口口 |⑤-⑥-|
67
①口②口 |--①-|
③口④口 |②-③-|
⑤⑦⑥口 |④-⑤-|
口⑥⑦口 |⑥-⑦-|
68
①③③② |--①-|
口口口口 |--②-|
③口口③ |--③-|
②口口① |----|
69
⑬⑭⑯⑮ |①②③④|
①②④③ |⑤⑥⑦⑧|
⑨⑩⑫⑪ |⑨⑩⑪⑫|
⑤⑥⑧⑦ |⑬⑭⑮⑯|
70
⑬⑭⑯⑮ |①②③④|
①②④③ |⑤⑥⑦⑧|
⑨⑩⑫⑪ |⑨⑩⑪⑫|
⑤⑥⑧⑦ |⑬⑭⑮⑯|
71
⑦⑦⑦⑦ |①---|
⑥①①⑥ |②-③-|
④⑤④⑤ |④-⑤-|
③②③② |⑥-⑦-|
72
⑤口口⑥ |--①-|
⑤②②⑥ |②-③-|
口口口口 |--④-|
③④④① |⑤-⑥-|
73
③②口③ |----|
口②口口 |①---|
①①①口 |②---|
口②口口 |--③-|
74
口④②④ |----|
口④②④ |①---|
口①①① |②---|
口③②③ |③-④-|
75
口口③口 |--①-|
②口⑥口 |②-③-|
⑤③①③ |--④-|
口⑥④⑥ |⑤-⑥-|
76
口③口② |--①-|
口①口④ |②-③-|
口⑤口口 |④-⑤-|
口⑦口⑥ |⑥-⑦-|
77
口②⑧③ |①---|
①口①④ |②-③④|
口⑥口⑤ |⑤-⑥-|
①口①⑦ |⑦-⑧-|
78
①⑤⑩口 |--①②|
②⑨⑥口 |③-④-|
③⑦⑧口 |--⑤⑥|
口口④口 |⑦⑧⑨⑩|
79
①口口② |①---|
①口口② |----|
口口口口 |----|
口口口口 |--②-|
80
口口口口 |----|
②口口口 |----|
②口口口 |----|
②①①① |①-②-|
81
①①①② |----|
④口口② |①-②-|
④口口② |----|
④③③③ |③-④-|
82
①①①② |----|
④④④② |①-②-|
④口口② |----|
④③③③ |③-④-|
83
口①①口 |----|
口口口口 |----|
口口口口 |----|
口①①口 |--①-|
84
口口口③ |--①-|
口②③口 |②-③-|
口③①口 |----|
③口口口 |----|

accuracy: 100%
最終更新:2022年07月22日 15:39