アットウィキロゴ
Ghost Clock
BEMANI Sound Team "Yvya"

EXTREME

Level: 10.5
BPM: 190
Notes(hold): 885(32)

1
口⑦口口 |①-②-|
口③⑨① |③-④⑤|
⑧⑥⑤④ |⑥-⑦-|
口口②口 |⑧-⑨-|
2
①⑨②口 |①-②-|
口口口⑧ |③-④⑤|
口⑥⑤④ |⑥-⑦-|
③口⑦口 |⑧-⑨-|
3
口口⑦口 |①-②-|
①⑧③口 |③-④⑤|
④⑤⑥⑨ |⑥-⑦-|
口②口口 |⑧-⑨-|
4
口②⑥① |①-②-|
⑦口⑨⑧ |③-④⑤|
④口⑥口 |⑥--⑦|
⑦⑤口③ |--⑧⑨|
5
①⑦口① |①-②-|
口③⑨口 |③-④⑤|
⑧⑥⑤④ |⑥-⑦-|
口口②口 |⑧-⑨-|
6
①⑨②口 |①-②-|
口口口⑧ |③-④⑤|
口⑥⑤④ |⑥-⑦-|
③口⑦口 |⑧-⑨-|
7
口口⑦口 |①-②-|
①⑨③口 |③-④⑤|
④⑤⑥⑧ |⑥-⑦-|
口②口口 |⑧-⑨-|
8
①口口① |①---|
②⑪⑩口 |--②③|
③⑥⑦⑩ |④⑤⑥⑦|
④⑤⑧⑨ |⑧⑨⑩⑪|
9
①②①③ |①---|
③口口口 |--②-|
口⑤④口 |--③-|
②口口口 |--④⑤|
10
③口②⑤ |①-②-|
口④⑥口 |③-④-|
①口口⑦ |⑤-⑥-|
口口⑧口 |⑦-⑧-|
11
口①口口 |①-②-|
④∧口② |③-④-|
①口③口
∧口口口

口口⑦<
口⑤⑥口
口⑧口⑦ |⑤-⑥-|
口口口∧ |⑦-⑧-|

口③口口
口口口口
③口口口
口口口口
12
①口口⑥ |①-②③|
口口⑦② |④---|
口⑧③口 |⑤---|
⑨④━< |⑥⑦⑧⑨|

口口①口
口口口口
口口口①
口⑤口口
13
∨口②⑦ |①-②-|
①口⑩⑨ |③-④⑤|
口∨③⑧ |⑥-⑦-|
口⑥⑤④ |⑧-⑨⑩|

口口口口
③口口口
口口口口
口⑧口口
14
②∨⑦⑨ |①-②-|
∨①⑩口 |③-④⑤|
⑥⑤④⑧ |⑥-⑦-|
口口口③ |⑧-⑨⑩|

口口口口
口③口口
⑧口口口
口口口口
15
①①⑥⑧ |①-②-|
④⑤口② |③-④⑤|
口口⑦⑨ |⑥-⑦-|
口口口③ |⑧-⑨-|
16
口③口口 |①②③-|
口口②④ |④-⑤⑥|
口①⑧口 |⑦-⑧-|
⑦⑥⑤口

口口口口
⑨━━<
口口口口
口口口口 |⑨---|
17
③①②① |①---|
①口口③ |--②-|
口④⑤口 |--③-|
口口口② |--④⑤|
18
⑤②口③ |①-②-|
口⑥④口 |③-④-|
⑦口口① |⑤-⑥-|
口⑧口口 |⑦-⑧-|
19
口②口∨ |①---|
②口口① |②-③-|
口口③∨
口口口①

⑥口口口
∧口⑦口
⑤④口口 |④-⑤-|
口口口口 |⑥-⑦-|

口口口口
口口口②
口口口口
口口口②
20
口④③② |①-②③|
口∧口⑤ |④-⑤-|
口口口口
口口①口

口口口口
⑩⑪口口
⑧⑨⑥口 |⑥-⑦-|
口⑦口口 |⑧⑨⑩⑪|

①⑥口口
口口口口
口口口口
口口口口
21
①<口② |①-②-|
口口口④ |③-④⑤|
口口口口
口口③⑤

口⑦口口
⑨口口口
⑧⑩>⑥ |⑥-⑦-|
口口口口 |⑧-⑨⑩|

③口口口
口口口口
口口口⑧
口口口口
22
②口口口 |①-②-|
口④①③ |③-④-|
⑥口⑧口 |⑤-⑥-|
④⑦口⑤ |⑦-⑧-|
23
⑤口①① |①-②③|
③⑦②∧ |④-⑤-|
口④⑨⑥ |⑥-⑦-|
⑧口口口 |⑧-⑨-|

口口口⑧
口口口口
口口口口
口口口口
24
④①⑤⑦ |①---②-|
口⑧③② |--③---|
口⑥口⑨ |④-⑤-⑥-|
口①②③ |⑦-⑧-⑨-|
25
口①口口 |①-②-|
③口④② |③-④⑤|
①口⑤口
口口口口

口口口⑧
口口口口
⑨口口口 |⑥-⑦-|
⑦口⑥口 |⑧-⑨-|
26
口口①口 |①-②-|
②④口③ |③-④⑤|
口⑤口①
口口口口

⑧口口口
口口口口
口口口⑨ |⑥-⑦-|
口⑥口⑦ |⑧-⑨-|
27
⑧①⑦口 |①-②-|
①口口② |③-④⑤|
④⑤⑥⑨ |⑥-⑦-|
口口③口 |⑧-⑨-|
28
口⑩⑨口 |①②③④|
①②③④ |⑤⑥⑦⑧|
口⑫⑪口 |⑨⑩⑪⑫|
⑧⑦⑥⑤ |----|
29
①⑤口口 |①-②-|
口②③⑥ |③-④-|
①⑦口④ |⑤-⑥-|
口口口⑧ |⑦-⑧-|
30
口⑤④② |①-②-|
③口⑥口 |③-④-|
口⑦②④ |⑤-⑥-|
①口⑧口 |⑦-⑧-|
31
口⑤口口 |①-②-|
口③⑥① |③-④-|
④口②⑦ |⑤-⑥-|
口口⑧口 |⑦-⑧-|
32
②④⑤口 |①-②-|
⑥口口① |③-④-|
④②⑦口 |⑤-⑥-|
⑧口口③ |⑦-⑧-|
33
口口⑤① |①-②-|
⑥③②口 |③-④-|
④口⑦① |⑤-⑥-|
⑧口口口 |⑦-⑧-|
34
②④⑤⑧ |①-②-|
口⑥口③ |③-④-|
④②⑦口 |⑤-⑥-|
口口口① |⑦-⑧-|
35
①④③口 |①---|
∧⑩口⑨ |②-③④|
口口口口 |⑤⑥⑦⑧|
⑧⑦⑥⑤ |⑨-⑩-|

②口口口
口口口口
口口口口
口口口口
36
口⑤口① |①-②-|
②⑧④⑥ |③-④-|
⑤③①口 |⑤-⑥-|
口口⑦口 |⑦-⑧-|
37
口口②① |①---|
①口③⑦ |----|
⑥口④① |②③④⑤|
①口⑤口 |⑥-⑦-|
38
口①⑧④ |①-②-|
①⑥⑤口 |③-④-|
口③口② |⑤-⑥-|
⑤⑦口⑧ |⑦-⑧-|
39
口③口⑥ |--①-|
①口口④ |②-③-|
口⑤②口 |--④-|
③口⑥口 |⑤-⑥-|
40
口②口口 |--①-|
①⑦③口 |②-③-|
⑥口④口 |④-⑤-|
口⑤口口 |⑥-⑦-|
41
口口口③ |①---|
①口口① |②-③-|
⑥⑤④② |--④-|
口口口口 |⑤-⑥-|
42
⑦③①⑤ |①-②-|
口①③口 |③-④-|
口⑧⑥口 |⑤-⑥-|
④⑥⑧② |⑦-⑧-|
43
口口口② |①---|
口口口口 |--②-|
①口口①
口口口口

口口口口
口口口③
⑥口④口 |③-④-|
口⑤口口 |⑤-⑥-|
44
②口①⑤ |①②③④|
⑧⑩⑦⑪ |⑤⑥⑦⑧|
⑭④⑬③ |⑨⑩⑪⑫|
⑥⑫⑮⑨ |⑬⑭⑮-|
45
口①①口 |①---|
口口口② |----|
口口口口 |②---|
口口口口 |----|
46
口口口口 |①---|
口口口口 |----|
①口③口 |----|
口口口② |②-③-|
47
口口口⑤ |①---|
口①④口 |----|
口③口口 |②-③-|
②口口口 |④-⑤-|
48
④①口口 |①---|
①口⑤⑤ |--②③|
口④③② |④---⑤-|
⑥⑥口口 |--⑥---|
49
口①口① |①---|
口③口⑤ |----|
②口④口 |②-③-|
口口口口 |④-⑤-|
50
①①⑤口 |①---|
口⑥④口 |②③④-|
口口⑦口 |--⑤-|
口②③④ |⑥-⑦-|
51
③口口③ |①---|
口口口口 |--②-|
②口口① |----|
①口口② |③---|
52
口口口口 |①---|
③口口口 |--②-|
④①②⑤ |--③④|
⑤②①⑤ |⑤---|
53
⑤⑦⑤② |①-②-|
口①③① |③-④-|
⑥④⑧口 |⑤-⑥-|
口口口口 |⑦-⑧-|
54
口⑧口⑦ |①-②-|
④①②口 |③-④⑤|
⑥③⑨口 |⑥-⑦-|
⑤①口口 |⑧-⑨-|
55
口口①⑦ |①-②-|
⑥⑤⑨① |③④⑤⑥|
口②口⑦ |⑦-⑧-|
⑧⑩④③ |⑨-⑩-|
56
①①口口 |①-②-|
口④口② |③-④-|
口口③口
口口口口

口⑩⑤口
⑨口⑧口
口⑦口⑤ |⑤-⑥-⑦-|
⑥口口⑧ |⑧-⑨-⑩-|
57
①口⑥① |①-②-|
口④口口 |③-④-|
⑦⑤③⑤ |⑤-⑥-|
口②⑧口 |⑦-⑧-|
58
口④口② |①-②-|
①口①口 |③-④-|
口口③口
口口口口

⑩口口口
⑨口口⑤
⑧口口口 |⑤-⑥-|
⑦⑥口口 |⑦⑧⑨⑩|
59
口口①① |①-②-|
⑩⑥⑨⑤ |③-④-|
⑫②⑪③ |⑤⑥⑦⑧|
口⑧④⑦ |⑨⑩⑪⑫|
60
口①①口 |①---|
口口④口 |----|
口③口口 |--②-|
②口口口 |③-④-|
61
①<③① |①---|
∨口口口 |②-③-|
③口⑤口 |--④-|
口⑥②④ |⑤-⑥-|

②口口口
口口口口
④口口口
口口口口
62
⑤②⑥② |①-②③|
⑦③①③ |④-⑤-|
口④⑧④ |⑥-⑦-|
⑨口口口 |⑧-⑨-|
63
⑥①⑥① |①---|
④③口③ |②-③-|
口口口口 |--④-|
口⑤②口 |⑤-⑥-|
64
口⑧口口 |--①②|
口口①⑦ |③-④-|
④⑥③口 |⑤-⑥-|
口口②⑤ |⑦-⑧-|
65
④⑥>① |①---|
口②口⑤ |②-③-|
⑥④③口 |④-⑤-|
①⑦口口 |⑥-⑦-|

口口口②
口口口口
口口口口
口口口口
66
④口①③ |①-②-|
②口口口 |③-④-|
口口③①
口口口口

口⑧口口
口口⑦口
⑫⑥口⑪ |⑤⑥⑦⑧|
⑩口⑤⑨ |⑨⑩⑪⑫|
67
口口口口 |①---|
③④>① |②-③④|
口口②口
口①<口

口⑥口⑧
口口⑤口
口⑦口口 |⑤-⑥-|
口口口口 |⑦-⑧-|

口口口口
口口口②
口口口口
口②口口
68
①⑭⑩口 |①-②-③-|
⑥⑬⑨④ |④-⑤-⑥-|
③⑫⑧口 |⑦⑧⑨⑩|
⑤⑪⑦② |⑪⑫⑬⑭|
69
②口口① |①---|
③口④∧ |②---|
⑤口⑥① |③-④-|
口口口∧ |⑤-⑥-|
70
口①①口 |①-②③|
口⑤口⑤ |④-⑤-|
口③口口
②口④口

口⑨口口
口口⑦口
⑧口口口 |⑥-⑦-|
口⑥口口 |⑧-⑨-|

口口口①
口口口口
口口口①
口口口口
71
口口①① |①-②-|
②⑦口⑤ |③-④-|
⑧③⑥口 |⑤-⑥-|
口口④口 |⑦-⑧-|
72
⑤①④⑥ |①-②-|
口口口口 |③-④-|
口③口② |--⑤-|
⑤①④⑥ |--⑥-|
73
⑦⑥⑤④ |①---|
①②②① |②---|
∧口口∧ |③---|
口③③口 |④⑤⑥⑦|

口口口口
③口口③
口口口口
口口口口
74
⑯⑮⑭⑬ |①②③④|
⑫⑦⑥⑨ |⑤⑥⑦⑧|
④③②① |⑨⑩⑪⑫|
⑧⑪⑩⑤ |⑬⑭⑮⑯|
75
口口口⑤ |①---|
口④口③ |②-③-|
④①①⑥ |④---|
口∧∧口 |⑤-⑥-|

口口口口
口口口口
口②②口
口口口口
76
①⑤②口 |①-②-③-|
①⑤②口 |④-⑤-⑥-|
⑥③④口
⑥③④口

⑨口口⑧
口口口口
口口口口 |⑦---⑧-|
口口口⑦ |--⑨---|
77
⑦⑤口∨ |①-②-|
①⑧③① |③-④-|
⑥④口① |⑤-⑥-|
口②口∧ |⑦-⑧-|
78
⑦口口口 |①-②-|
③⑧⑤口 |③-④-|
⑥④①口 |⑤-⑥-|
②口口口 |⑦-⑧-|
79
⑦②口口 |①-②-|
③⑧⑤口 |③-④-|
⑥④①口 |⑤-⑥-|
口口口口 |⑦-⑧-|
80
口口②口 |①-②-|
③口④口 |③-④-|
⑤口①口 |⑤-⑥-|
>━━⑥ |⑦---|

口口口口
口口口①
口口口①
口口口⑦
81
①③⑤① |①-②③|
口④⑧口 |④-⑤-|
⑥②⑨⑥ |⑥-⑦⑧|
口⑩⑦口 |⑨-⑩-|
82
口④④口 |①②③-|
⑥⑨口① |④-⑤⑥|
⑦②口⑧ |⑦-⑧-|
⑤口⑩③ |⑨-⑩-|
83
①⑤③① |①-②③|
口⑧④口 |④-⑤-|
⑥⑨②⑥ |⑥-⑦⑧|
口⑦⑩口 |⑨-⑩-|
84
口④④口 |①②③-|
①口⑨⑥ |④-⑤⑥|
⑧口②⑦ |⑦-⑧-|
③⑩口⑤ |⑨-⑩-|
85
①⑧②① |①-②-|
④⑥口④ |③-④-|
⑦③口⑦ |⑤-⑥-|
口口⑤口 |⑦-⑧-|
86
⑤口口⑤ |①-②-|
⑧⑥④⑧ |③-④-|
⑨口①⑨ |⑤-⑥-|
②③⑦② |⑦-⑧⑨|
87
④②口④ |①-②-|
口口口口 |③-④-|
口口③口
①口口①

口口⑥口
⑦口口⑦
口⑤口口 |⑤-⑥-|
⑨口口⑧ |⑦-⑧⑨|
88
⑧②口⑦ |①②③④|
口⑩⑤⑪ |⑤⑥⑦⑧|
④⑫③① |⑨⑩⑪⑫|
口⑥⑨口 |----|
89
口口口口 |----|
口口口口 |----|
口口口口 |----|
口口口口 |----|

accuracy: 99%
最終更新:2022年04月07日 16:58