アットウィキロゴ
↑↑↓↓←→←→BA
meiyo

BASIC

Level: 3
BPM: 124
Notes: 276

1
口口口口 |----|
口口口口 |----|
口口口口 |----|
口口口口 |----|
2
口口口④ |①---|
口口③口 |②---|
口②口口 |③---|
①口口口 |④---|
3
口口口口 |①---|
②①口口 |②---|
口口口口 |----|
口口口口 |----|
4
口口口口 |①---|
口口口口 |②---|
②①口口 |----|
口口口口 |----|
5
口口口口 |①---|
口口①② |②---|
口口口口 |----|
口口口口 |----|
6
口口口口 |①---|
口口口口 |②---|
口口①② |----|
口口口口 |----|
7
②①口口 |①---|
口口口口 |②---|
口口口口 |----|
口口口口 |----|
8
口口口口 |①---|
口口口口 |②---|
口口口口 |----|
②①口口 |----|
9
口口①② |①---|
口口口口 |②---|
口口口口 |----|
口口口口 |----|
10
口口口口 |①---|
口口口口 |②---|
口口口口 |----|
口口①② |----|
11
口②②口 |----|
口①①口 |①---|
口口口口 |②---|
口口口口 |----|
12
口口口口 |----|
口口口口 |①---|
口①①口 |②---|
口②②口 |----|
13
口口口口 |①---|
①口口② |----|
③口口口 |②---|
口口口口 |③---|
14
口③③口 |①---|
口口口口 |②---|
口口口① |③---|
口②②口 |----|
15
口②②口 |----|
口①①口 |①---|
口口口口 |②---|
口口口口 |----|
16
口口口口 |----|
口口口口 |①---|
口①①口 |②---|
口②②口 |----|
17
口口口口 |①---|
①口口② |----|
③口口口 |②---|
口口口口 |③---|
18
口③③口 |①---|
口④④口 |②---|
口④④① |③---|
口②②口 |④---|
19
①口②口 |①---|
③口④口 |②---|
口口口口 |③---|
口口口口 |④---|
20
口口口口 |①---|
口口口口 |②---|
①口②口 |③---|
③口④口 |④---|
21
口口口口 |①---|
口口口口 |----|
口②口口 |②---|
口①口口 |----|
22
口②口口 |①---|
口①口口 |----|
口口口口 |②---|
口口口口 |----|
23
口②口① |①---|
口④口③ |②---|
口口口口 |③---|
口口口口 |④---|
24
口口口口 |①---|
口口口口 |②---|
口②口① |③---|
口④口③ |④---|
25
口口口口 |①---|
口口口口 |----|
口口②口 |②---|
口口①口 |----|
26
口口②口 |①---|
口口①口 |----|
口口口口 |②---|
口口口口 |----|
27
①①口口 |①---|
口口②② |②---|
③③口口 |③---|
口口④④ |④---|
28
口口④口 |①---|
口③口口 |②---|
口口②口 |③---|
口①口口 |④---|
29
①①口口 |①---|
口口②② |②---|
③③口口 |③---|
口口④④ |④---|
30
口口口口 |①---|
口③口口 |②---|
口口②口 |③---|
口①口口 |----|
31
口口①① |①---|
②②口口 |②---|
口口③③ |③---|
④④口口 |④---|
32
口④口口 |①---|
口口③口 |②---|
口②口口 |③---|
口口①口 |④---|
33
口口①① |①---|
②②口口 |②---|
口口③③ |③---|
④④口口 |④---|
34
口口口口 |①---|
口口③口 |②---|
口②口口 |③---|
口口①口 |----|
35
口②②口 |----|
口口口口 |①---|
口①①口 |②---|
口口口口 |----|
36
口口口口 |----|
口①①口 |①---|
口口口口 |②---|
口②②口 |----|
37
口口口口 |①---|
①口口② |----|
③口口口 |②---|
口口口口 |③---|
38
口③③口 |①---|
口口口口 |②---|
口口口① |③---|
口②②口 |----|
39
口②②口 |----|
口口口口 |①---|
口①①口 |②---|
口口口口 |----|
40
口口口口 |----|
口①①口 |①---|
口口口口 |②---|
口②②口 |----|
41
口口口口 |①---|
①口口② |----|
③口口口 |②---|
口口口口 |③---|
42
口③③口 |①---|
口口口口 |②---|
口口口① |③---|
口②②口 |----|
43
①口②口 |①---|
③口④口 |②---|
口口口口 |③---|
口口口口 |④---|
44
口口口口 |①---|
口口口口 |②---|
①口②口 |③---|
③口④口 |④---|
45
口口口口 |①---|
口口口口 |----|
口②口口 |②---|
口①口口 |----|
46
②口②口 |①---|
口①口口 |----|
口口口口 |②---|
口口口口 |----|
47
口②口① |①---|
口④口③ |②---|
口口口口 |③---|
口口口口 |④---|
48
口口口口 |①---|
口口口口 |②---|
口②口① |③---|
口④口③ |④---|
49
口口口口 |①---|
口口口口 |----|
口口②口 |②---|
口口①口 |----|
50
口②口② |①---|
口口①口 |----|
口口口口 |②---|
口口口口 |----|
51
①口②口 |①---|
③口④口 |②---|
口口口口 |③---|
口口口口 |④---|
52
口口口口 |①---|
口④④口 |②---|
①口②口 |③---|
口③③口 |④---|
53
口②口① |①---|
口④口③ |②---|
口口口口 |③---|
口口口口 |④---|
54
口口口口 |①---|
口③③口 |②---|
口口口① |③---|
口②②口 |----|
55
②口①口 |①---|
④口③口 |②---|
口口口口 |③---|
口口口口 |④---|
56
口口口口 |①---|
口④④口 |②---|
②口①口 |③---|
口③③口 |④---|
57
口②口① |①---|
口④口③ |②---|
口口口口 |③---|
口口口口 |④---|
58
口口口口 |①---|
口③③口 |②---|
口口口① |③---|
口②②口 |----|
59
①②①口 |①---|
③④③口 |②---|
口口口口 |③---|
口口口口 |④---|
60
口口口口 |①---|
口④④口 |②---|
①②①口 |③---|
口③③口 |④---|
61
口①②① |①---|
口③④③ |②---|
口口口口 |③---|
口口口口 |④---|
62
口口口口 |①---|
口③③口 |②---|
口①口① |③---|
口②②口 |----|
63
口①②① |①---|
口③④③ |②---|
口口口口 |③---|
口口口口 |④---|
64
口口口口 |①---|
口④④口 |②---|
口①②① |③---|
口③③口 |④---|
65
①②①口 |①---|
③④③口 |②---|
口口口口 |③---|
口口口口 |④---|
66
口④④口 |①---|
③④④③ |②---|
①口①口 |③---|
口②②口 |④---|

accuracy: 100%
最終更新:2022年05月21日 03:02