アットウィキロゴ
↑↑↓↓←→←→BA
meiyo

ADVANCED

Level: 7
BPM: 124
Notes: 680

1
口口口口 |----|
口口口口 |----|
口口口口 |----|
口口口口 |----|
2
口口口口 |----|
口口口口 |----|
口口口口 |----|
口口口口 |----|
3
①②①② |①---|
口口③④ |②---|
口口口口 |③---|
口口口口 |④---|
4
口口口口 |①---|
口口口口 |②---|
口口③④ |③---|
①②①② |④---|
5
②口口④ |①②-③|
口①③口 |④---|
⑥⑤⑦⑧ |⑤⑥-⑦|
口口口口 |⑧---|
6
口②②口 |①-②-|
口口口④ |--③-|
口⑤口③ |④---|
口①①口 |⑤---|
7
②①②① |①---|
④③口口 |②---|
口口口口 |③---|
口口口口 |④---|
8
口口口口 |①---|
口口口口 |②---|
④③口口 |③---|
②①②① |④---|
9
④口口② |①②-③|
口③①口 |④---|
⑧⑦⑤⑥ |⑤⑥-⑦|
口口口口 |⑧---|
10
口②②口 |①-②-|
④口口口 |--③-|
③口⑤口 |④---|
口①①口 |⑤---|
11
②④②④ |--①-|
口口口口 |②-③-|
口①③口 |④---|
口口口口 |----|
12
口口口口 |--①-|
口①③口 |②-③-|
口口口口
②口②口

口口口口
⑥⑥口口
⑤⑤口口 |④---|
口④口④ |⑤-⑥-|
13
①①②③ |①---|
口口②③ |----|
⑤④口口 |②-③-|
⑤④口口 |④-⑤-|
14
③④③④ |①-②-|
④③④③ |③---|
口口①② |④---|
口口①② |----|
15
②④②④ |--①-|
口口口口 |②-③-|
口①③口 |④---|
口口口⑤ |⑤---|
16
①口口口 |①-②-|
口②④口 |③-④-|
口口口口
③口③口

口口口口
⑦⑦口口
⑥⑥口口 |⑤---|
口⑤口⑤ |⑥-⑦-|
17
①①口口 |①---|
口口口口 |②---|
口口口口
②口口口

口口③④
口口③④
⑥⑤口口 |③-④-|
⑥⑤口口 |⑤-⑥-|
18
③口③口 |①-②-|
口③口③ |③---|
口口①②
口口①②

口④口④
④口④口
口⑤⑤口 |④---|
口⑤⑤口 |⑤---|
19
①③⑥⑤ |①-②-|
口口⑦口 |③-④-|
②⑦④口 |⑤---|
口⑥口口 |⑥-⑦-|
20
口口口口 |①-②-|
①③口口 |③-④-|
口口口口
②口④口

口口口口
口⑦⑥⑤
口⑥⑦口 |⑤---|
口口口口 |⑥-⑦-|
21
①口口② |①---|
口④③口 |----|
口③④口 |②-③-|
②口口① |④---|
22
①①③③ |①-②-|
口⑤⑤口 |③-④-|
口⑤⑤口 |⑤---|
②②④④ |----|
23
⑤⑥③① |①-②-|
口⑦口口 |③-④-|
口④⑦② |⑤---|
口口⑥口 |⑥-⑦-|
24
口口口口 |①-②-|
口口③① |③-④-|
口口口口
口④口②

口口口口
⑤⑥⑦口
口⑦⑥口 |⑤---|
口口口口 |⑥-⑦-|
25
②口口① |①---|
口③④口 |----|
口④③口 |②-③-|
①口口② |④---|
26
③③①① |①-②-|
口⑤⑤口 |③-④-|
口⑥⑥口 |⑤---|
④④②② |⑥---|
27
口②①⑤ |①-②-|
②口⑤① |③-④-|
④口⑥③ |⑤---|
口④③⑥ |⑥---|
28
①③口③ |①---|
口①口口 |②---|
口②口口 |③---|
②④口④ |④---|
29
口②①⑤ |①-②-|
②口⑤① |③-④-|
④口⑥③ |⑤---|
口④③⑥ |⑥---|
30
①口口口 |①---|
口①③③ |②---|
口②③③ |③---|
②口口口 |----|
31
⑤①②口 |①-②-|
①⑤口② |③-④-|
③⑥口④ |⑤---|
⑥③④口 |⑥---|
32
③口③① |①---|
口口①口 |②---|
口口②口 |③---|
④口④② |④---|
33
⑤①②口 |①-②-|
①⑤口② |③-④-|
③⑥口④ |⑤---|
⑥③④口 |⑥---|
34
口口口① |①---|
③③①口 |②---|
③③②口 |③---|
口口口② |----|
35
②④②④ |--①-|
口口口口 |②-③-|
口①③口 |④---|
口口口口 |----|
36
口口口口 |--①-|
口①③口 |②-③-|
口口口口
②口②口

口口口口
⑥⑥口口
⑤⑤口口 |④---|
口④口④ |⑤-⑥-|
37
①①②③ |①---|
口口②③ |----|
⑤④口口 |②-③-|
⑤④口口 |④-⑤-|
38
③④③④ |①-②-|
④③④③ |③---|
口口①② |④---|
口口①② |----|
39
②④②④ |--①-|
口口口口 |②-③-|
口①③口 |④---|
口口口⑤ |⑤---|
40
①口口口 |①-②-|
口②④口 |③-④-|
口口口口
③口③口

口口口口
⑦⑦口口
⑥⑥口口 |⑤---|
口⑤口⑤ |⑥-⑦-|
41
①①口口 |①---|
口口口口 |②---|
口口口口
②口口口

口口③④
口口③④
⑥⑤口口 |③-④-|
⑥⑤口口 |⑤-⑥-|
42
③④③④ |①-②-|
④③④③ |③---|
口口①② |④---|
口口①② |----|
43
①③⑥⑤ |①-②-|
口口⑦口 |③-④-|
②⑦④口 |⑤---|
口⑥口口 |⑥-⑦-|
44
口口口口 |①-②-|
①③口口 |③-④-|
口口口口
②口④口

口口口⑦
口口⑥⑤
口⑥口口 |⑤---|
⑦口口口 |⑥-⑦-|
45
①口②③ |①---|
口⑤④口 |②---|
口④⑤口 |③-④-|
③②口① |⑤---|
46
①①③③ |①-②-|
口⑤⑤口 |③-④-|
口⑤⑤口 |⑤---|
②②④④ |----|
47
⑤⑥③① |①-②-|
口⑦口口 |③-④-|
口④⑦② |⑤---|
口口⑥口 |⑥-⑦-|
48
口口口口 |①-②-|
口口③① |③-④-|
口口口口
口④口②

口口口口
⑤⑥⑦口
口⑦⑥口 |⑤---|
口口口口 |⑥-⑦-|
49
③②口① |①---|
口④⑤口 |②---|
口⑤④口 |③-④-|
①口②③ |⑤---|
50
③③①① |①-②-|
口⑤⑤口 |③-④-|
口⑥⑥口 |⑤---|
④④②② |⑥---|
51
口②①口 |①-②-|
②口口① |③-④-|
④口口③
口④③口

口口口口
⑦口口⑥
口⑤⑤口 |⑤---|
口口口口 |⑥-⑦-|
52
③口口① |①-②-|
口③①口 |③-④-|
口④②口
④口口②

口口口口
口⑦⑥口
口口口口 |⑤---|
口⑤⑤口 |⑥-⑦-|
53
口②①口 |①-②-|
②口口① |③-④-|
④口口③
口④③口

口口口口
⑦⑤⑤⑦
口⑥⑥口 |⑤-⑥-|
口口口口 |⑦---|
54
③③①① |①-②-|
口口口口 |③-④-|
口⑤⑤口 |⑤---|
④④②② |----|
55
口①②口 |①-②-|
①口口② |③-④-|
③口口④
口③④口

口⑦⑦口
⑥口⑤⑥
口⑤口口 |⑤---|
口口口口 |⑥-⑦-|
56
①口口③ |①-②-|
口①③口 |③-④-|
口②④口
②口口④

⑥口口口
口⑦⑦口
口口口⑥ |⑤---|
口⑤⑤口 |⑥-⑦-|
57
口①②口 |①-②-|
①口口② |③-④-|
③口口④
口③④口

口口口口
⑦⑤⑥⑦
口⑥⑤口 |⑤-⑥-|
口口口口 |⑦---|
58
①①③③ |①-②-|
口⑤⑤口 |③-④-|
口⑥⑥口 |⑤---|
②②④④ |⑥---|
59
口②①口 |①-②-|
②口口① |③-④-|
④口口③
口④③口

⑤口⑦口
⑦⑤口⑥
口⑥⑤口 |⑤---|
口口口⑤ |⑥-⑦-|
60
③口口① |①-②-|
口③①口 |③-④-|
口④②口
④口口②

⑦口口⑥
口⑦⑥口
⑤口口⑤ |⑤---|
口⑤⑤口 |⑥-⑦-|
61
口②①口 |①-②-|
②口口① |③-④-|
④口口③
口④③口

口口口口
⑦⑥⑥⑦
口⑧⑧口 |⑤-⑥-|
⑤口口⑤ |⑦-⑧-|
62
③③①① |①-②-|
口⑤⑤口 |③-④-|
口⑥⑥口 |⑤---|
④④②② |⑥---|
63
口①②口 |①-②-|
①口口② |③-④-|
③口口④
口③④口

口⑥⑥⑤
⑥口⑤⑥
⑦⑤口口 |⑤---|
⑤⑦口口 |⑥-⑦-|
64
①口口③ |①-②-|
口①③口 |③-④-|
口②④口
②口口④

⑦口⑤⑦
口口口⑤
⑤⑥口⑥ |⑤---|
⑥⑤⑥口 |⑥-⑦-|
65
口①②口 |①-②-|
①口口② |③-④-|
③口口④
口③④口

口口口口
⑦⑥⑥⑦
口⑧⑧口 |⑤-⑥-|
⑤口口⑤ |⑦-⑧-|
66
①①③③ |①-②-|
口⑥⑥口 |③-④-|
⑥⑤⑤⑥ |⑤---|
②②④④ |⑥---|

accuracy: 100%
最終更新:2022年05月21日 03:16