アットウィキロゴ
↑↑↓↓←→←→BA
meiyo

EXTREME

Level: 9.0
BPM: 124
Notes: 763

1
口口口口 |----|
口口口口 |----|
口口口口 |----|
口口口口 |----|
2
口口口口 |----|
口口口口 |----|
口口口口 |----|
口口口口 |----|
3
③①②④ |①---|
①②①② |②---|
口口口口 |③---|
口口口口 |④---|
4
口口口口 |①---|
口口口口 |②---|
①②①② |③---|
③①②④ |④---|
5
②①③④ |①②-③|
⑥⑤⑦⑧ |④---|
②①③④ |⑤⑥-⑦|
口口口口 |⑧---|
6
⑤口口⑤ |①-②-|
口口口口 |--③-|
①口②口 |④---|
③①④② |⑤---|
7
③①②④ |①---|
①②①② |②---|
口口口口 |③---|
口口口口 |④---|
8
口口口口 |①---|
口口口口 |②---|
①②①② |③---|
③①②④ |④---|
9
②①③④ |①②-③|
⑥⑤⑦⑧ |④---|
②①③④ |⑤⑥-⑦|
口口口口 |⑧---|
10
口口口口 |①-②-|
口口口口 |--③-|
①口②口
③①口②

⑧口口口
口⑦口口
口口⑥口 |④---|
口口④⑤ |⑤⑥⑦⑧--|
11
口②④口 |--①-|
②④②④ |②-③-|
口口口口 |④---|
口①③口 |----|
12
口①③口 |--①-|
口口口口 |②-③-|
②口②口
口②口口

口口口⑤
口⑥口口
口④口④ |④---|
口⑥④口 |⑤-⑥-|
13
⑥口口口 |①---|
①口②③ |----|
⑤④口口 |②-③④|
①⑥②③ |⑤-⑥-|
14
口口口② |①-②-|
③口④口 |③---|
口③①④ |④---|
口口②口 |----|
15
口②④口 |---①|
②④②④ |②-③-|
⑤①口⑦ |④-⑤-|
⑥口③口 |⑥-⑦-|
16
口②④口 |①-②-|
口口口口 |③-④-|
③口③口
口③口①

口口口⑦
口⑧口⑥
口⑤口⑤ |⑤-⑥-|
口⑧⑤口 |⑦-⑧-|
17
⑨②口④ |①-②-|
①口⑤⑥ |③-④-|
⑧⑦③口 |⑤-⑥⑦|
①⑨⑤⑥ |⑧-⑨-|
18
口口口② |①-②-|
③口口口 |③---|
口③①口
口口②口

口⑤⑤口
口口④口
口口口④ |④---|
口⑤⑤口 |⑤---|
19
①口口④ |①-②-|
③口②口 |③-④-|
口口③口
口口口①

口口⑤口
口口口口
⑤口口口 |⑤---|
⑥⑦⑥⑦ |⑥-⑦-|
20
口①口① |①-②-|
口③④口 |③-④-|
口口②③
口口口口

口口口口
口口口口
⑦⑤⑦口 |⑤---|
口⑥⑤⑥ |⑥-⑦-|
21
口口口口 |①---|
口①口① |----|
口口口口
口口口口

④口④口
口③口③
②口②口 |②-③-|
口口口口 |④---|
22
口①口① |①-②-|
③⑤③⑤ |③-④-|
口口口口 |⑤---|
②④②④ |----|
23
④口口① |①-②-|
口②口③ |③-④-|
口③口口
①口口口

口⑤口口
口口口口
口口口⑤ |⑤---|
⑦⑥⑦⑥ |⑥-⑦-|
24
①口①口 |①-②-|
口④③口 |③-④-|
③②口口
口口口口

口口口口
口口口口
口⑦⑤⑦ |⑤---|
⑥⑤⑥口 |⑥-⑦-|
25
口口口口 |①---|
①口①口 |----|
口口口口
口口口口

口④口④
③口③口
口②口② |②-③-|
口口口口 |④---|
26
①口①口 |①-②-|
⑤③⑤③ |③-④-|
口口口口 |⑤---|
④②④② |----|
27
口口④② |①-②-|
③①口口 |③-④-|
口口口口
④②③①

⑤口口口
口⑥口口
⑦口口口 |⑤-⑥-⑦-|
口⑧口口 |⑧---|
28
口口口① |①-②-③-|
口口②口 |④---|
口口口③
口口④口

口口口口
口⑤⑥口
⑤⑤⑥⑥ |⑤---|
口口口口 |⑥---|
29
口②③① |①-②-|
④口口② |③-④-|
口③口口
口①④口

⑤口口口
口⑥口口
⑦口口口 |⑤-⑥-⑦-|
口⑧口口 |⑧---|
30
④④⑤⑤ |①-②-③-|
④口①⑤ |④---|
口口口② |⑤---|
口口③口 |----|
31
口口④② |①-②-|
③①口口 |③-④-|
口口口口
④②③①

⑤口口口
口⑥口口
⑦口口口 |⑤-⑥-⑦-|
口⑧口口 |⑧---|
32
口口口① |①-②-③-|
口口②口 |④---|
口口口③
口口④口

口口口口
口⑤⑥口
⑤⑤⑥⑥ |⑤---|
口口口口 |⑥---|
33
口②③① |①-②-|
④口口② |③-④-|
口口口口
③①④口

⑤口口口
口⑥口口
⑦口口口 |⑤-⑥-⑦-|
口⑧口口 |⑧---|
34
④④⑤⑤ |①-②-③-|
④口①⑤ |④---|
口⑥⑥② |⑤---|
口口③口 |⑥---|
35
口②④口 |--①-|
②④②④ |②-③-|
口口口口 |④---|
口①③口 |----|
36
口①③口 |--①-|
口口口口 |②-③-|
②口②口
口②口口

口口口⑤
口⑥口口
口④口④ |④---|
口⑥④口 |⑤-⑥-|
37
⑥口口口 |①---|
①口②③ |----|
⑤④口口 |②-③④|
①⑥②③ |⑤-⑥-|
38
口口口② |①-②-|
③口④口 |③---|
口③①④ |④---|
口口②口 |----|
39
⑧②④⑤ |---①|
②④②④ |②-③-|
口①⑥⑦ |④⑤-⑥|
口口③口 |⑦-⑧-|
40
口②④口 |①-②-|
口口口口 |③-④-|
③口③口
①③口口

口口口口
口⑨⑦⑧
口⑤口⑤ |⑤⑥-⑦|
口⑨⑤⑥ |⑧-⑨-|
41
口②口口 |①-②-|
①口口口 |③-④-|
口④③口
①口口口

⑫口⑨口
⑧⑥⑤⑦
口口⑪口 |⑤⑥⑦⑧|
⑩口口口 |⑨⑩⑪⑫|
42
口①口① |①-②-|
③口④口 |③---|
口③口④ |④---|
口②口② |----|
43
①口口④ |①-②-|
③口②口 |③-④-|
口口③口
口口①①

口口⑤口
口口口口
⑤口口⑤ |⑤---|
⑥⑦⑥⑦ |⑥-⑦-|
44
口①②④ |①-②-|
口③口① |③-④-|
口口①③
口口口口

口口口口
口口⑤口
⑦⑤⑦口 |⑤---|
口⑥⑤⑥ |⑥-⑦-|
45
口口口口 |①---|
口①口① |②---|
口口口口
口口②口

⑤口⑤口
口④口④
③⑥③口 |③-④-|
口口口口 |⑤-⑥-|
46
口①口① |①-②-|
③口③口 |③-④-|
口口口口
②④②④

口⑦口口
口⑤口⑤
⑧口⑥口 |⑤-⑥-|
口口口口 |⑦-⑧-|
47
④口口① |①-②-|
口②口③ |③-④-|
口③口口
①①口口

口⑤口口
口口口口
⑤口口⑤ |⑤---|
⑦⑥⑦⑥ |⑥-⑦-|
48
④②①口 |①-②-|
①口③口 |③-④-|
③①口口
口口口口

口口口口
口⑤口口
口⑦⑤⑦ |⑤---|
⑥⑤⑥口 |⑥-⑦-|
49
口口口口 |①---|
①口①口 |②---|
口口口口
口②口口

口⑤口⑤
④口④口
口③⑥③ |③-④-|
口口口口 |⑤-⑥-|
50
①⑦①口 |①-②-|
⑤③⑤③ |③-④-|
⑧口⑥口 |⑤-⑥-|
④②④② |⑦-⑧-|
51
①口①② |①-②-|
③口②① |③-④-|
口口③④
口口④③

口口⑥口
口⑤口口
⑤口口口 |⑤---|
⑥⑦口⑦ |⑥-⑦-|
52
口①④① |①-②-|
口③②③ |③-④-|
口口③①
口口口口

口⑦口口
口⑦口口
口⑤口⑥ |⑤---|
⑤口⑥口 |⑥-⑦-|
53
①口①② |①-②-|
③口②① |③-④-|
口口③④
口口④③

⑦口⑦口
口⑥口⑥
⑤⑤⑧口 |⑤-⑥-|
口口口口 |⑦-⑧-|
54
口①口① |①-②-|
③口③口 |③-④-|
口口口口
②④②④

口口⑦口
口口口口
⑥⑤口⑤ |⑤-⑥-|
口口⑧口 |⑦-⑧-|
55
②①口① |①-②-|
①②口③ |③-④-|
④③口口
③④口口

口⑥口口
口口⑤口
口口口⑤ |⑤---|
⑦口⑦⑥ |⑥-⑦-|
56
①④①口 |①-②-|
③②③口 |③-④-|
①③口口
口口口口

口口⑦口
口口⑦口
⑥口⑤口 |⑤---|
口⑥口⑤ |⑥-⑦-|
57
②①口① |①-②-|
①②口③ |③-④-|
④③口口
③④口口

口⑦口⑦
⑥口⑥口
口⑧⑤⑤ |⑤-⑥-|
口口口口 |⑦-⑧-|
58
①口①口 |①-②-|
口③口③ |③-④-|
口口口口
④②④②

口⑥口口
口口口口
⑤口⑤口 |⑤---|
口⑥口口 |⑥---|
59
①口①② |①-②-|
③口②① |③-④-|
口①③④
口口④③

口口⑥口
口⑤口口
⑤口口口 |⑤---|
⑥⑦口⑦ |⑥-⑦-|
60
④①④① |①-②-|
口③②③ |③-④-|
口口③①
口口口口

口⑦口口
口口口口
口⑤口⑥ |⑤---|
⑤口⑥口 |⑥-⑦-|
61
①口①② |①-②-|
口①②① |③-④-|
③口③④
口③④③

⑦口⑦口
⑤⑥口⑥
口口⑧口 |⑤-⑥-|
⑤口口口 |⑦-⑧-|
62
口①口① |①-②-|
③口③口 |③-④-|
口口口口
②④②④

口口⑥口
口口口口
⑦⑤口⑤ |⑤-⑥-|
口口⑧口 |⑦-⑧-|
63
②①口① |①-②-|
①②口③ |③-④-|
④③①口
③④口口

口⑥口口
口口⑤口
口口口⑤ |⑤---|
⑦口⑦⑥ |⑥-⑦-|
64
①④①④ |①-②-|
③②③口 |③-④-|
①③口口
口口口口

口口⑦口
口口口口
⑥口⑤口 |⑤---|
口⑥口⑤ |⑥-⑦-|
65
②①口① |①-②-|
①②①口 |③-④-|
④③口③
③④③口

口⑦口⑦
⑥口⑥⑤
口⑧口口 |⑤-⑥-|
口口口⑤ |⑦-⑧-|
66
①口①口 |①-②-|
口③口口 |③-④-|
②口②③
④口④口

口⑥⑥口
⑥口⑤⑥
口⑥⑥口 |⑤---|
口口口⑤ |⑥---|

accuracy: 100%
最終更新:2022年05月21日 03:30