アットウィキロゴ
最凶アンビバレント
森羅万象

BASIC

Level: 3
BPM: 179
Notes: 232

1
口口口口 |----|
口口口口 |----|
口口口口 |----|
口口口口 |----|
2
口口口口 |①---|
口口口口 |----|
口口口口 |②---|
②口口① |----|
3
口口口口 |①---|
口口口口 |----|
②口口① |②---|
口口口口 |----|
4
口口口口 |①---|
口①①口 |----|
口②②口 |②---|
口口口口 |----|
5
①口口① |①---|
口口口口 |----|
口口口口 |----|
口口口口 |----|
6
口②①口 |①---|
口④③口 |②---|
口口口口 |③---|
口口口口 |④---|
7
口口口口 |①---|
口口口口 |②---|
口②①口 |③---|
口④③口 |④---|
8
口口口③ |①---|
口口口② |②---|
口口口① |③---|
口口口口 |----|
9
③口口口 |①---|
②口口口 |②---|
①口口口 |③---|
口口口口 |----|
10
口口口口 |①---|
口①①口 |----|
口口口口 |②---|
口②②口 |----|
11
口口③③ |①---|
②②口口 |②---|
口口①① |③---|
口口口口 |----|
12
口口口口 |----|
口口口口 |----|
口口口口 |----|
口口口口 |----|
13
口口③口 |①---|
口②口口 |②---|
口口①口 |③---|
口口口口 |----|
14
①口口① |①---|
口口口口 |----|
②口口② |②---|
口口口口 |----|
15
口③口口 |①---|
口口②口 |②---|
口①口口 |③---|
口口口口 |----|
16
①口口① |①---|
口口口口 |----|
②口口② |②---|
口口口口 |----|
17
口口③口 |①---|
口②口口 |②---|
口口①口 |③---|
口口口口 |----|
18
①口口① |①---|
口口口口 |----|
②口口② |②---|
口口口口 |----|
19
口③口口 |①---|
口口②口 |②---|
口①口口 |③---|
口口口口 |----|
20
①口口① |①---|
口口口口 |----|
②口口② |②---|
口口口口 |----|
21
口口口口 |①---|
口口口① |----|
口口口口 |----|
口口口口 |----|
22
口口口口 |①---|
口口口口 |----|
口口口口 |----|
口口口① |----|
23
口口口口 |①---|
口口①口 |----|
口口口口 |----|
口口口口 |----|
24
口口口口 |①---|
口口口口 |----|
口口口口 |----|
口口①口 |----|
25
口口口口 |①---|
口①口口 |----|
口口口口 |----|
口口口口 |----|
26
口口口口 |①---|
口口口口 |----|
口口口口 |----|
口①口口 |----|
27
口口口口 |①---|
①口口口 |----|
口口口口 |----|
口口口口 |----|
28
口口口口 |①---|
口口口口 |----|
口口口口 |----|
①口口口 |----|
29
口口口口 |①---|
①口口口 |----|
②口口口 |②---|
口口口口 |----|
30
口口口口 |①---|
口口口口 |----|
口口口口 |----|
①口口口 |----|
31
口口口口 |①---|
口①口口 |----|
口②口口 |②---|
口口口口 |----|
32
口口口口 |①---|
口口口口 |----|
口口口口 |----|
口①口口 |----|
33
口口口口 |①---|
口口①口 |----|
口口②口 |②---|
口口口口 |----|
34
口口口口 |①---|
口口口口 |----|
口口口口 |----|
口口①口 |----|
35
口口口口 |①---|
口口口① |----|
口口口② |②---|
口口口口 |----|
36
口口口口 |①---|
口口口口 |----|
口口口口 |----|
口口口① |----|
37
口②①口 |①---|
口口口口 |----|
口口口口 |②---|
口口口口 |----|
38
口口口口 |①---|
口②①口 |----|
口口口口 |②---|
口口口口 |----|
39
口口口口 |①---|
口口口口 |----|
口②①口 |②---|
口口口口 |----|
40
口口口口 |①---|
口口口口 |----|
口口口口 |②---|
口②①口 |----|
41
口口口口 |①---|
口口口口 |----|
②②口口 |②---|
口口①① |----|
42
②②口口 |①---|
口口①① |----|
口口口口 |②---|
口口口口 |----|
43
口口①① |①---|
口口口口 |----|
口口口口 |----|
口口口口 |----|
44
口口口口 |①---|
口②①口 |②---|
口④③口 |③---|
口口口口 |④---|
45
①口⑤① |①---|
口④口口 |②---|
②口③② |③-④-|
口口口口 |⑤---|
46
①⑤口① |①---|
口口④口 |②---|
②③口② |③-④-|
口口口口 |⑤---|
47
②口口① |①---|
口口口口 |②---|
④口口③ |③---|
口口口口 |④---|
48
③口口③ |①---|
口①①口 |②---|
④②②④ |③---|
口口口口 |④---|
49
口口口口 |①---|
①口⑤① |②---|
口④口口 |③-④-|
②口③② |⑤---|
50
口口口口 |①---|
①⑤口① |②---|
口口④口 |③-④-|
②③口② |⑤---|
51
②口口① |①---|
口口口口 |②---|
④口口③ |③---|
口口口口 |④---|
52
口口口口 |①---|
口①①口 |----|
口口口口 |----|
口口口口 |----|
53
口口③③ |①---|
口②口口 |②---|
口口①① |③---|
口口口口 |----|
54
③③口口 |①---|
口口②口 |②---|
①①口口 |③---|
口口口口 |----|
55
口口口口 |①---|
①口口① |②---|
口③③口 |③---|
②④④② |④---|
56
①口口① |①---|
口口口口 |----|
口口口口 |----|
口口口口 |----|
57
口②①口 |①---|
口④③口 |②---|
口口口口 |③---|
口口口口 |④---|
58
口口口口 |①---|
口口口口 |②---|
口②①口 |③---|
口④③口 |④---|
59
口口口① |①---|
口口口② |②---|
口口口③ |③---|
口口口④ |④---|
60
①口口口 |①---|
②口口口 |②---|
③口口口 |③---|
④口口口 |④---|
61
口口口口 |①---|
口①①口 |----|
口口口口 |②---|
口②②口 |----|
62
口口③③ |①---|
②②口口 |②---|
口口①① |③---|
口口口口 |----|
63
①①口口 |①---|
口口②② |②---|
③③口口 |③---|
口口口口 |----|
64
口口③口 |①---|
口②口口 |②---|
口口①口 |③---|
口口口口 |----|
65
①口口① |①---|
口口口口 |----|
②口口② |②---|
口口口口 |----|
66
口③口口 |①---|
口口②口 |②---|
口①口口 |③---|
口口口口 |----|
67
①口口① |①---|
口口口口 |----|
②口口② |②---|
口口口口 |----|
68
口口③口 |①---|
口②口口 |②---|
口口①口 |③---|
口口口口 |----|
69
①口口① |①---|
口口口口 |----|
②口口② |②---|
口口口口 |----|
70
口③口口 |①---|
口口②口 |②---|
口①口口 |③---|
口口口口 |----|
71
①口口① |①---|
口③③口 |----|
②口口② |②---|
口口口口 |③---|

accuracy: 99.5%
最終更新:2024年09月08日 16:16