アットウィキロゴ
最凶アンビバレント
森羅万象

ADVANCED

Level: 6
BPM: 179
Notes: 336

1
口口口口 |----|
口口口口 |----|
口口口口 |----|
口口口口 |----|
2
口口口口 |①---|
口口口① |②---|
口口口② |③---|
口口口③ |----|
3
口口口口 |①---|
①口口口 |②---|
②口口口 |③---|
③口口口 |----|
4
③口口③ |①---|
②口①口 |②---|
口①口② |③---|
口④④口 |④---|
5
口口口口 |①---|
口①①口 |----|
口①①口 |----|
口口口口 |----|
6
④④口口 |①---|
口口③口 |②---|
②②口口 |③---|
口口①口 |④---|
7
口口④④ |①---|
口③口口 |②---|
口口②② |③---|
口①口口 |④---|
8
①口口口 |①---|
②口口口 |②---|
③口口口 |③---|
④口口口 |④---|
9
口口口① |①---|
口口口② |②---|
口口口③ |③---|
口口口④ |④---|
10
①口口① |①---|
口口口口 |----|
②口口② |②---|
口口口口 |----|
11
③③③③ |①---|
口①①口 |②---|
口②②口 |③---|
口口口口 |----|
12
口口口口 |----|
口口口口 |----|
口口口口 |----|
口口口口 |----|
13
口口口口 |①---|
③②①口 |②---|
口口口口 |③---|
口口口口 |----|
14
②②口口 |①---|
口口口口 |----|
①①口口 |②---|
口口口口 |----|
15
口口口口 |①---|
口①②③ |②---|
口口口口 |③---|
口口口口 |----|
16
口口②② |①---|
口口口口 |----|
口口①① |②---|
口口口口 |----|
17
口口口口 |①---|
③②①口 |②---|
口口口口 |③---|
口口口口 |----|
18
②②口口 |①---|
口口口口 |----|
①①口口 |②---|
口口口口 |----|
19
口口口口 |①---|
口①②③ |②---|
口口口口 |③---|
口口口口 |----|
20
口③③口 |①---|
口②②口 |②---|
口①①口 |③---|
口口口口 |----|
21
口口口口 |①---|
④③②① |②---|
口口口口 |③---|
口口口口 |④---|
22
口口口口 |----|
口口口口 |----|
口口口口 |----|
口①①口 |①---|
23
口口口口 |①---|
口口①③ |②---|
口口②④ |③---|
口口口口 |④---|
24
口口口口 |----|
口口口口 |----|
口口口口 |----|
口①①口 |①---|
25
口口口口 |①---|
③①口口 |②---|
④②口口 |③---|
口口口口 |④---|
26
口口口口 |----|
口口口口 |----|
口口口口 |----|
口①①口 |①---|
27
口口口口 |①---|
口口口口 |②---|
①②③④ |③---|
口口口口 |④---|
28
口口口口 |----|
口口口口 |----|
口口口口 |----|
口口口口 |----|
29
口口口口 |①---|
④③②① |②---|
口口口口 |③---|
口口口口 |④---|
30
①口口① |----|
口口口口 |----|
口口口口 |①---|
口②②口 |②---|
31
口口口口 |①---|
口口①③ |②---|
口口②④ |③---|
口口口口 |④---|
32
①口口① |----|
口口口口 |----|
口口口口 |①---|
口②②口 |②---|
33
口口口口 |①---|
③①口口 |②---|
④②口口 |③---|
口口口口 |④---|
34
口口口口 |①---|
口口①③ |②---|
口口②④ |③---|
口口口口 |④---|
35
①②③④ |①---|
口口口口 |②---|
口口口口 |③---|
口口口口 |④---|
36
口口口口 |----|
口口口口 |----|
口口口口 |----|
口口口口 |----|
37
口口口口 |①---|
口①①口 |----|
口②②口 |②---|
口口口口 |----|
38
口①①口 |①---|
口口口口 |----|
口口口口 |②---|
口②②口 |----|
39
①口口口 |①---|
口口口口 |----|
口①口口 |②---|
②②口口 |----|
40
口口口① |①---|
口口口口 |----|
口口①口 |②---|
口口②② |----|
41
①口口② |①---|
口③③口 |----|
①口口② |②---|
口口口口 |③---|
42
口口口口 |①---|
①口口② |----|
口③③口 |②---|
①口口② |③---|
43
③①①③ |①---|
口口口口 |②---|
口口口口 |③---|
④②②④ |④---|
44
⑤口口⑤ |①-②-|
口②①口 |③-④-|
口④③口 |⑤---|
⑥口口⑥ |⑥---|
45
口②①口 |①---|
口口口口 |②---|
口③④⑤ |③-④-|
口①②口 |⑤---|
46
口②①口 |①---|
⑤④③口 |②---|
口口口口 |③-④-|
口①②口 |⑤---|
47
口②③① |①-②-|
⑤⑤⑥⑥ |③---|
⑦⑦④④ |④-⑤-|
①③②口 |⑥-⑦-|
48
①口口② |①---|
③口④口 |②---|
口④口③ |③---|
②口口① |④---|
49
口①②口 |①---|
口口口口 |②---|
⑤④③口 |③-④-|
口②①口 |⑤---|
50
口①②口 |①---|
口③④⑤ |②---|
口口口口 |③-④-|
口②①口 |⑤---|
51
①①③③ |①---|
口口口口 |②---|
②②④④ |③---|
口口口口 |④---|
52
口口②口 |①---|
口①①口 |----|
口口口口 |----|
口②口口 |②---|
53
口④口口 |①---|
口口口① |②---|
口口口② |③---|
口口④③ |④---|
54
口口④口 |①---|
①口口口 |②---|
②口口口 |③---|
③④口口 |④---|
55
①口口③ |①---|
口②④口 |②---|
口④②口 |③---|
③口口① |④---|
56
口①②口 |①---|
③口口① |----|
①口口口 |②---|
口口①口 |③---|
57
④④口口 |①---|
口口③口 |②---|
②②口口 |③---|
口口①口 |④---|
58
口口④④ |①---|
口③口口 |②---|
口口②② |③---|
口①口口 |④---|
59
①口口口 |①---|
②口口口 |②---|
③口口口 |③---|
④口口口 |④---|
60
口口口① |①---|
口口口② |②---|
口口口③ |③---|
口口口④ |④---|
61
口①①口 |①---|
口③③口 |②---|
口②②口 |③---|
口④④口 |④---|
62
③口口③ |①---|
口口口口 |②---|
口②②口 |③---|
①口口① |----|
63
口④④口 |①---|
口①①口 |②---|
②④④② |③---|
口③③口 |④---|
64
口口口口 |①---|
③②①口 |②---|
口口口口 |③---|
口口口口 |----|
65
②②口口 |①---|
口口口口 |----|
①①口口 |②---|
口口口口 |----|
66
口口口口 |①---|
口①②③ |②---|
口口口口 |③---|
口口口口 |----|
67
口口②② |①---|
口口口口 |----|
口口①① |②---|
口口口口 |----|
68
口口口口 |①---|
③②①口 |②---|
口口口口 |③---|
口口口口 |----|
69
②②口口 |①---|
口口口口 |----|
①①口口 |②---|
口口口口 |----|
70
口口口口 |①---|
口①②③ |②---|
口口口口 |③---|
口口口口 |----|
71
①口口① |①---|
口③③口 |②---|
口②②口 |③---|
④口口④ |④---|

accuracy: 99.5%
最終更新:2024年09月08日 16:16