アットウィキロゴ
最凶アンビバレント
森羅万象

EXTREME

Level: 9.6
BPM: 179
Notes: 614

1
①口③口 |----|
口口口口 |----|
口口口口 |--①-|
②口口口 |②-③-|
2
口口口② |①---|
口③口④ |②---|
口口⑤口 |③--④|
口口①口 |--⑤-|
3
②口口口 |①---|
④口③口 |②---|
口⑤口口 |③--④|
口①口口 |--⑤-|
4
口①②④ |①---|
口③口口 |②---|
口口③口 |③---|
④②①口 |④---|
5
口①口口 |①---|
口④口① |----|
①口③口 |--②-|
口②①口 |③-④-|
6
⑤①③① |①-②-|
口⑦口⑦ |③-④-|
④②口② |⑤---|
口⑥口⑥ |⑥-⑦-|
7
口口口口 |①-②-|
口口④口 |③-④-|
口②③②
①口①口

⑤⑤⑥⑥
口口口口
口口口口 |⑤--⑥|
口⑦⑦口 |--⑦-|
8
口④⑤口 |①---|
口①口① |②-③-|
口②③② |④-⑤-|
口⑥⑦口 |⑥-⑦-|
9
口⑤④口 |①---|
①口①口 |②-③-|
②③②口 |④-⑤-|
口⑦⑥口 |⑥-⑦-|
10
④口口② |①---|
①③③① |②---|
口②④口 |③---|
口口口口 |④---|
11
口①①口 |①---|
③口③⑤ |②---|
口③⑥③ |③-④-|
②④口② |⑤-⑥-|
12
口口口口 |----|
口口口口 |----|
口口口口 |----|
口口口口 |----|
13
④口口口 |①-②③|
口③⑤口 |④-⑤-|
②口口口
口口①①

口⑨口口
口口口⑧
口⑦⑥口 |⑥-⑦-|
口口⑨口 |⑧-⑨-|
14
口口⑥③ |--①-|
⑤②口口 |②-③-|
口口④① |--④-|
⑥③口口 |⑤-⑥-|
15
③⑧口口 |--①②|
口②④⑦ |③-④-|
①⑥⑤口 |⑤-⑥-|
口口⑧口 |⑦-⑧-|
16
口口⑥③ |--①-|
⑤②口口 |②-③-|
口口④① |--④-|
⑥③口口 |⑤-⑥-|
17
③⑧口口 |--①②|
口②④⑦ |③-④-|
①⑥⑤口 |⑤-⑥-|
口口⑧口 |⑦-⑧-|
18
口口⑥③ |--①-|
⑤②口口 |②-③-|
口口④① |--④-|
⑥③口口 |⑤-⑥-|
19
③⑧⑧口 |--①②|
口②④⑦ |③-④-|
①⑥⑤口 |⑤-⑥-|
口⑧⑧口 |⑦-⑧-|
20
①口口③ |--①-|
口口口口 |②-③-|
口口口口 |④---|
②口口④ |----|
21
口口口口 |①---|
①口③⑤ |②---|
口②口④ |③---|
口口口口 |④-⑤-|
22
口口口③ |----|
口口②口 |----|
口①口③ |--①-|
口口口口 |②-③-|
23
④⑤口口 |--①-|
口③口⑤ |②-③-|
口⑥②口 |④-⑤-|
口①口① |--⑥-|
24
③口口口 |----|
口②口口 |----|
③口①口 |--①-|
口口口口 |②-③-|
25
口口⑤④ |--①-|
⑤口③口 |②-③-|
口②⑥口 |④-⑤-|
①口①口 |--⑥-|
26
口口口口 |----|
②口②口 |----|
口①口口 |----|
口口口口 |①-②-|
27
⑤⑤③口 |--①-|
口②口② |②-③-|
口口①口 |④-⑤-|
⑥⑥④口 |--⑥-|
28
口口口口 |----|
口口口口 |----|
口口口口 |----|
口口口口 |----|
29
④口②口 |①---|
⑤③口① |②---|
④口②口 |③---|
口口口口 |④-⑤-|
30
⑤口口① |--①-|
口④口② |②---|
⑤口③③ |--③-|
口口口口 |④-⑤-|
31
⑥口⑤④ |--①-|
⑤口③口 |②-③-|
口②⑥④ |④-⑤-|
①口①口 |--⑥-|
32
口口口⑤ |--①-|
口口④口 |②---|
③③口⑤ |--③-|
口口①② |④-⑤-|
33
④⑥⑤⑥ |--①-|
口③口口 |②-③-|
④⑤②口 |④-⑤-|
口①口① |--⑥-|
34
口口口口 |--①-|
②⑤②⑤ |②-③-|
口口④口 |----|
③①③① |④-⑤-|
35
口口⑥⑥ |--①-|
②口②口 |②-③④|
③①口口 |⑤-⑥-|
⑤④⑦⑦ |--⑦-|
36
①口口口 |--①-|
口⑤②⑥ |②-③-|
③口④⑦ |④-⑤-|
口口口口 |⑥-⑦-|
37
口①口口 |①---|
①口②口 |②---|
⑤口④口 |③---|
③③口口 |④---⑤-|
38
口口①口 |①---|
⑤②口① |②---③-|
口口⑥④ |④---|
口③④口 |⑤---⑥-|
39
③口①口 |①---|
口④②口 |②---|
①②④口 |③---|
口口③口 |④---|
40
口⑤④① |①---|
③口口口 |②---③-|
口②口② |④---|
④①口口 |⑤---|
41
口口口口 |①---|
口口①口 |②-③-|
口②③口
口①口①

④口口⑥
口口口口
④口口⑥ |④-⑤-|
口⑦⑤口 |⑥-⑦-|
42
⑦⑤①口 |①-②-|
①②③口 |③-④-|
口④⑧⑥ |⑤-⑥-|
③口⑦⑤ |⑦-⑧-|
43
口口①口 |①---|
⑤④③② |②---|
①口口口 |③-④-|
口②口口 |⑤---|
44
⑤③口① |①-②-|
⑧口⑥口 |③-④-|
口⑦⑧口 |⑤-⑥-|
④⑥②口 |⑦-⑧-|
45
⑥⑤①① |①---|
⑥⑤口⑦ |②--③|
口口口④ |④-⑤-|
口③②② |⑥-⑦-|
46
口④②口 |①---|
⑦口①口 |②-③-|
①口⑤⑥ |④-⑤-|
②③⑤⑥ |⑥-⑦-|
47
①口③口 |①-②-|
口口①③ |③--④|
口②口口
口④口口

⑧口口口
口⑦口口
口口口⑥ |⑤-⑥-|
口口⑤口 |⑦-⑧-|
48
④①口① |①---|
③口③口 |②---|
①③①③ |③---|
②④口② |④---|
49
⑤④①① |①---|
⑤④口⑥ |②---|
口③③口 |③-④-|
口口②② |⑤-⑥-|
50
口⑧②③ |①-②-|
口⑤①口 |③--④|
①口⑥⑦ |⑤-⑥-|
④③⑥⑦ |⑦-⑧-|
51
②口①② |①---|
①④⑥① |②-③-|
④①口⑥ |④-⑤-|
口③⑤口 |⑥---|
52
口①①口 |①---|
口口口口 |----|
口①①口
口口口口

口口④口
③口口口
口口口口 |--②-|
口②口口 |③-④-|
53
口口口② |①---|
口①口④ |②---|
③②⑤口 |③--④|
口口①② |--⑤-|
54
②口②口 |①---|
④口①口 |②---|
口⑤口③ |③--④|
②①口口 |--⑤-|
55
②①②口 |①---|
④③④① |②---|
①④③④ |③---|
口②①② |④---|
56
口①口口 |①---|
口④口① |----|
①口③口 |--②-|
口②①口 |③-④-|
57
口①③① |①-②-|
④⑧⑤⑧ |③-④-|
⑥②口② |⑤-⑥-|
口⑦口⑦ |⑦-⑧-|
58
口口口口 |①-②-|
④口口口 |③-④-|
口②③②
①口①口

⑥⑥⑤⑤
口口口口
口口口口 |⑤--⑥|
口⑦⑦口 |--⑦-|
59
⑥④口口 |①---|
④①③① |②-③-|
⑥②口② |④--⑤|
口口⑤⑤ |--⑥-|
60
口⑤⑦① |①-②-|
口③口② |③-④-|
口③④② |⑤-⑥-|
①⑥⑧口 |⑦-⑧-|
61
④口口③ |①---|
①④②① |②---|
口③④口 |③---|
口口口口 |④---|
62
口①①口 |①---|
③口③⑤ |②---|
⑥③⑥口 |③-④-|
②④③② |⑤-⑥-|
63
④①④② |--①-|
③②③口 |②---|
口③口③ |③---|
④口④① |④---|
64
口①口⑤ |①-②③|
口④口口 |④-⑤-|
③口口口
口②口①

口⑨口口
口口口⑧
口⑦⑥口 |⑥-⑦-|
口口⑨口 |⑧-⑨-|
65
口口⑥③ |--①-|
⑤②口口 |②-③-|
口口④① |--④-|
⑥③口口 |⑤-⑥-|
66
③⑧口口 |--①②|
口②④⑦ |③-④-|
①⑥⑤口 |⑤-⑥-|
口口⑧口 |⑦-⑧-|
67
口口⑥③ |--①-|
⑤②口口 |②-③-|
口口④① |--④-|
⑥③口口 |⑤-⑥-|
68
③⑧口口 |--①②|
口②④⑦ |③-④-|
①⑥⑤口 |⑤-⑥-|
口口⑧口 |⑦-⑧-|
69
口口⑥③ |--①-|
⑤②口口 |②-③-|
口口④① |--④-|
⑥③口口 |⑤-⑥-|
70
③⑧⑧口 |--①②|
口②④⑦ |③-④-|
①⑥⑤口 |⑤-⑥-|
口⑧⑧口 |⑦-⑧-|
71
③⑤口① |--①-|
①②④⑥ |--②-|
⑤③②① |③-④-|
①口⑥④ |⑤-⑥-|

accuracy: 99.5%
最終更新:2024年09月08日 16:16