アットウィキロゴ
シル・ヴ・プレジデント
P丸様。

BASIC

Level: 3
BPM: 176
Notes: 221

1
口口口口 |----|
口口口口 |----|
口口口口 |----|
口口口口 |----|
2
口口口口 |①---|
口口口口 |②---|
③口口④ |③---|
①口口② |④---|
3
③口口口 |①---|
①口口② |②---|
口口口口 |③---|
口口口口 |----|
4
口口口口 |①---|
口①①口 |----|
口口口口 |----|
口口口口 |----|
5
①口口① |①---|
②口口② |----|
口口口口 |②---|
口口口口 |----|
6
口口口口 |①---|
口口口口 |----|
①口口① |----|
口口口口 |----|
7
口③④口 |①---|
口①②口 |②---|
口口口口 |③---|
口口口口 |④---|
8
①口口② |①---|
③口口④ |②---|
口口口口 |③---|
口口口口 |④---|
9
口口口口 |①---|
口口口口 |②---|
①口口② |③---|
③口口④ |④---|
10
口口口口 |①---|
口口口口 |②---|
口③④口 |③---|
口①②口 |④---|
11
口③④口 |①---|
口①②口 |②---|
口口口口 |③---|
口口口口 |④---|
12
①口口② |①---|
③口口④ |②---|
口口口口 |③---|
口口口口 |④---|
13
口口口口 |①---|
口口口口 |②---|
①口口② |③---|
③口口④ |④---|
14
口③口口 |①---|
口②口口 |②---|
口①口口 |③---|
口口口口 |----|
15
口口口① |①---|
口口口口 |----|
口口口口 |----|
口口口口 |----|
16
①口口口 |①---|
口口口口 |----|
口口口口 |----|
口口口口 |----|
17
口口口① |①---|
口口口口 |----|
口口口口 |----|
口口口口 |----|
18
①口口口 |①---|
口口口口 |----|
口口口口 |----|
口口口口 |----|
19
口口口① |①---|
口口口口 |----|
口口口口 |----|
口口口口 |----|
20
①口口口 |①---|
口口口口 |----|
口口口口 |----|
口口口口 |----|
21
口口口① |①---|
口口口口 |----|
口口口口 |----|
口口口口 |----|
22
①口口口 |①---|
口口口口 |----|
口口口口 |----|
口口口口 |----|
23
口口口口 |①---|
口②②口 |②---|
口①①口 |----|
口口口口 |----|
24
口口口口 |①---|
口口口口 |②---|
口口口口 |③---|
①②③④ |④---|
25
口口口口 |①---|
①口口口 |----|
口口口口 |----|
口口口口 |----|
26
口口口口 |----|
口口口口 |----|
口口口口 |----|
口口口口 |----|
27
口口口口 |①---|
口②②口 |②---|
口①①口 |----|
口口口口 |----|
28
口口口口 |①---|
口口口口 |②---|
口口口口 |③---|
④③②① |④---|
29
口口口口 |①---|
口②口① |----|
口口口口 |②---|
口口口口 |----|
30
口口口口 |----|
口口口口 |----|
口口口口 |----|
口口口口 |----|
31
口口①① |①---|
口口口口 |----|
口②口口 |②---|
口口口口 |----|
32
①①口口 |①---|
口口口口 |----|
口口②口 |②---|
口口口口 |----|
33
口口口口 |①---|
口①口口 |----|
口口②口 |②---|
口口口口 |----|
34
①口口① |①---|
口口口口 |----|
口②②口 |②---|
口口口口 |----|
35
④口口口 |①---|
③口口口 |②---|
②口口口 |③---|
①口口口 |④---|
36
口口口④ |①---|
口口口③ |②---|
口口口② |③---|
口口口① |④---|
37
口口口口 |①---|
口①①口 |----|
口口口口 |----|
口口口口 |----|
38
口口口口 |①---|
口口口③ |②---|
口口②口 |③---|
口①口口 |----|
39
①①口口 |①---|
②②口口 |②---|
③③口口 |③---|
口口④口 |④---|
40
口口①① |①---|
口口②② |②---|
口口③③ |③---|
口④口口 |④---|
41
口口口口 |①---|
口①③口 |②---|
口④口口 |③---|
口口②口 |④---|
42
①口口① |①---|
②口口② |②---|
③口口③ |③---|
④口口④ |④---|
43
①①口口 |①---|
口口②② |----|
口口口口 |②---|
口口口口 |----|
44
口口口口 |①---|
口口口口 |----|
①①口口 |②---|
口口②② |----|
45
口口④口 |①---|
口②口口 |②---|
口口③口 |③---|
口①口口 |④---|
46
口①口口 |①---|
口口②口 |②---|
口③口口 |③---|
口口口口 |----|
47
口口①① |①---|
口口口口 |----|
口口②口 |②---|
口口口口 |----|
48
①①口口 |①---|
口口口口 |----|
口②口口 |②---|
口口口口 |----|
49
口口口口 |①---|
口口①① |----|
口口口口 |②---|
口口②口 |----|
50
口口口口 |①---|
①①口口 |----|
口口口口 |②---|
口②口口 |----|
51
口口口口 |①---|
口口口口 |②---|
④口口③ |③---|
②口口① |④---|
52
④口口③ |①---|
②口口① |②---|
口口口口 |③---|
口口口口 |④---|
53
口口口口 |①---|
口①①口 |----|
口口口口 |----|
口口口口 |----|
54
口口①口 |①---|
口②口口 |②---|
口口③口 |③---|
口④口口 |④---|
55
口口口口 |①---|
口口①口 |----|
口②口口 |②---|
口口口口 |----|
56
①口口① |①---|
②口口② |②---|
③口口③ |③---|
口口口口 |----|
57
口口口口 |①---|
口口口口 |②---|
口③④口 |③---|
口①②口 |④---|
58
口③④口 |①---|
口①②口 |②---|
口口口口 |③---|
口口口口 |④---|
59
①口口② |①---|
③口口④ |②---|
口口口口 |③---|
口口口口 |④---|
60
口口口口 |①---|
口口口口 |②---|
①口口② |③---|
③口口④ |④---|
61
口口口口 |①---|
口口口口 |②---|
口③④口 |③---|
口①②口 |④---|
62
口③④口 |①---|
口①②口 |②---|
口口口口 |③---|
口口口口 |④---|
63
①口口② |①---|
③口口④ |②---|
口口口口 |③---|
口口口口 |④---|
64
口口口口 |①---|
口口口口 |②---|
①口口② |③---|
③口口④ |④---|
65
口④④口 |①---|
口③③口 |②---|
口②②口 |③---|
口①①口 |④---|
66
口③③口 |①---|
②③③② |②---|
①口口① |----|
口口口口 |--③-|

accuracy: 99.5%
最終更新:2024年09月08日 16:21