アットウィキロゴ
シル・ヴ・プレジデント
P丸様。

ADVANCED

Level: 7
BPM: 176
Notes: 401

1
口口口口 |----|
口口口口 |----|
口口口口 |----|
口口口口 |----|
2
②口口口 |①---|
口④③口 |②---|
口⑥⑤口 |③-④-|
口①①口 |⑤-⑥-|
3
口②④④ |①-②-|
⑤⑤口口 |--③-|
③口⑥⑥ |--④-|
口口口① |⑤-⑥-|
4
口口口口 |①---|
口口口口 |----|
口口口口 |----|
①①口口 |----|
5
④口口口 |①-②-|
口口①口 |③-④-|
口②口口 |⑤---|
⑥⑥③⑤ |⑥---|
6
②口①① |①---|
口⑤④口 |--②-|
口③口口 |--③-|
口口口口 |④-⑤-|
7
口⑥⑤口 |①-②-|
口口⑦口 |③-④-|
④口口③ |⑤-⑥-|
口②①口 |⑦---|
8
口口口④ |①-②-|
口⑥⑦口 |③-④-|
口③⑤口 |--⑤-|
①口②口 |⑥-⑦-|
9
口⑤口口 |①-②-|
口口口⑥ |③-④-|
③⑦口④ |⑤-⑥-|
口①②口 |⑦---|
10
④口口口 |①-②-|
口⑦⑥口 |③-④-|
口⑤③口 |--⑤-|
口②口① |⑥-⑦-|
11
口⑥⑤口 |①-②-|
口口⑦口 |③-④-|
④口口③ |⑤-⑥-|
口②①口 |⑦---|
12
口口口④ |①-②-|
口⑥⑦口 |③-④-|
口③⑤口 |--⑤-|
①口②口 |⑥-⑦-|
13
口⑤口口 |①-②-|
口口口⑥ |③-④-|
③⑦口④ |⑤-⑥-|
口①②口 |⑦---|
14
①口①④ |①---|
②口②口 |②---|
③口③口 |③---|
口口口口 |④---|
15
口口口口 |①---|
口④口口 |--②-|
口②③口 |③---|
口①口口 |--④-|
16
口②③口 |①---|
口口①口 |--②-|
口口口口 |③---|
④口口口 |④---|
17
口口口口 |①---|
④口口口 |--②-|
②③口口 |③---|
口口口① |--④-|
18
②③口口 |①---|
口①口口 |--②-|
口口口口 |③---|
口口口④ |④---|
19
口口口口 |①---|
口口口④ |--②-|
口口③② |③---|
①口口口 |--④-|
20
口口③② |①---|
口口①口 |--②-|
口口口口 |③---|
④口口口 |④---|
21
口口口口 |①---|
口④口口 |--②-|
口②③口 |③---|
口口口① |--④-|
22
口②口口 |①---|
口口①口 |--②-|
口口口口
口口口口

口口③口
口口⑥口
口⑤口口 |③-④-|
④口口口 |⑤-⑥-|
23
①③口② |①---|
口口④口 |②---|
①⑤口② |--③-|
口口口口 |④-⑤-|
24
口口①口 |①---|
③口口口 |②---|
口⑥⑥④ |③-④-|
⑤口②口 |⑤-⑥-|
25
口口口口 |--①-|
口①②⑤ |②---|
口口口④ |--③-|
口口口③ |④-⑤-|
26
口口口口 |--①-|
③⑥口口 |②-③-|
②口⑤口 |--④-|
①口口④ |⑤-⑥-|
27
②口③① |①---|
口④口口 |②---|
②口⑤① |--③-|
口口口口 |④-⑤-|
28
口①口口 |①---|
口口口③ |②---|
④⑥口口 |③-④-|
口②口⑤ |⑤-⑥-|
29
③③①① |①---|
口口口口 |--②-|
口口②口 |③---|
口口口口 |----|
30
口口口① |①---|
口口②口 |②---|
口③口口 |③---|
④口口口 |④---|
31
①口①口 |①---|
口②口口 |--②-|
口口口口 |③---|
口口③口 |----|
32
口①口① |①---|
口口②口 |--②-|
口口口口 |③---|
口③口口 |----|
33
口口口④ |--①-|
⑤①口口 |②-③-|
口口②⑥ |④-⑤-|
⑦③口口 |⑥-⑦-|
34
口②①③ |①--②|
口①②口 |--③-|
③口口口 |----|
口口口口 |----|
35
口口口口 |①-②-|
①⑥③口 |③-④-|
⑤②⑦④ |⑤-⑥-|
口口口口 |⑦---|
36
①⑤口② |①-②-|
口口⑥口 |③-④-|
口⑦口口 |⑤-⑥-|
③口⑧④ |⑦-⑧-|
37
①口口② |----|
①口口② |----|
口口口口 |--①-|
口口口口 |②---|
38
口口口口 |①---|
③③③口 |②---|
②②口口 |③-④-|
①⑥⑤④ |⑤-⑥-|
39
①①①① |①---|
口口口② |②---|
口口口口
②口口口

⑤口口口
③口口口
口④④口 |③---|
口口口③ |④-⑤-|
40
口⑥①口 |--①-|
口②⑤口 |②-③-|
③口口④ |--④-|
口口口口 |⑤-⑥-|
41
口口口⑤ |--①-|
口⑤口③ |②-③-|
口口②口 |----|
④①口口 |④-⑤-|
42
口①口口 |----|
③口②口 |①---|
口口口① |②---|
口②③口 |③---|
43
③③①① |①---|
口口口口 |--②-|
口②口口 |③---|
口口口④ |--④-|
44
口口口口 |①-②-|
①口口② |③-④-|
口口口口 |----|
口③④口 |----|
45
口口⑦⑦ |①-②-|
口①④口 |③-④-|
⑤口②口 |--⑤-|
口⑥口③ |⑥-⑦-|
46
①口口口 |--①-|
口口口② |②-③-|
口③口口 |④---|
口口④口 |----|
47
口①①口 |①---|
口口④口 |--②-|
口口口口 |③---|
②口口③ |④---|
48
①口③口 |①-②-|
口⑤口⑤ |③-④-|
口②口④ |⑤---|
口口口口 |----|
49
②口口③ |①---|
口口口口 |--②-|
口④口口 |③---|
口①①口 |④---|
50
口口口口 |①---|
口口③③ |②---|
口口②② |③---|
口口①① |----|
51
②口口口 |①---|
口④③口 |②---|
口⑥⑤口 |③-④-|
①口口口 |⑤-⑥-|
52
口②④④ |①-②-|
⑤⑤口口 |--③-|
③口⑥⑥ |--④-|
口口口① |⑤-⑥-|
53
口口口口 |①---|
口口口口 |----|
口口口口 |----|
①①口口 |----|
54
口④口口 |①-②-|
⑥⑥①口 |③-④-|
口②⑤⑤ |⑤---|
口口③口 |⑥---|
55
口③口② |①---|
口口⑥口 |②-③-|
⑤口④口 |④-⑤-|
①⑦口① |⑥-⑦-|
56
口⑤⑤口 |①-②-|
口②口③ |③-④-|
口④口口 |⑤---|
口口口① |----|
57
④口口口 |①-②-|
口⑦⑥口 |③-④-|
口⑤③口 |--⑤-|
口②口① |⑥-⑦-|
58
口⑥⑤口 |①-②-|
口口⑦口 |③-④-|
④口口③ |⑤-⑥-|
口②①口 |⑦---|
59
口口口④ |①-②-|
口⑥⑦口 |③-④-|
口③⑤口 |--⑤-|
①口②口 |⑥-⑦-|
60
口⑤口口 |①-②-|
口口口⑥ |③-④-|
③⑦口④ |⑤-⑥-|
口①②口 |⑦---|
61
④口口口 |①-②-|
口⑦⑥口 |③-④-|
口⑤③口 |--⑤-|
口②口① |⑥-⑦-|
62
口⑥⑤口 |①-②-|
口口⑦口 |③-④-|
④口口③ |⑤-⑥-|
口②①口 |⑦---|
63
口口口④ |①-②-|
口⑥⑦口 |③-④-|
口③⑤口 |--⑤-|
①口②口 |⑥-⑦-|
64
口⑤口口 |①-②-|
口口口⑥ |③-④-|
③⑦口④ |⑤-⑥-|
口①②口 |⑦---|
65
①口①口 |①---|
②口②口 |②---|
③口③口 |③---|
④口④口 |④---|
66
口口口口 |①---|
口①口① |②---|
口②口②
口口口口

③口口③
口③③口
口口口口 |----|
口口口口 |--③-|

accuracy: 99.5%
最終更新:2024年09月08日 16:21