アットウィキロゴ
シル・ヴ・プレジデント
P丸様。

EXTREME

Level: 9.3
BPM: 176
Notes: 591

1
口口口口 |----|
口口口口 |----|
口口口口 |----|
口口口口 |----|
2
口①②④ |----|
①③口口 |①---|
②口⑤口 |②-③-|
④口口口 |④-⑤-|
3
②②口口 |①-②-|
②口③口 |--③-|
口③口①
口口①口

口口④口
口口口④
⑤口口⑥ |--④-|
口⑤⑥口 |⑤-⑥-|
4
①口口② |①---|
③①口口 |②---|
口口口口 |③---|
口口口④ |④---|
5
⑤口口④ |①-②-|
口①口⑥ |③-④-|
口⑤②口 |⑤---|
口③⑥口 |⑥---|
6
口④④④ |①-②-|
③⑤口口 |③-④-|
②口⑥口 |--⑤-|
①⑦口口 |⑥-⑦-|
7
口口⑥⑥ |①-②③|
②⑦⑦① |④-⑤-|
⑧③⑧口 |⑥-⑦-|
⑤口④口 |⑧---|
8
④④④口 |①-②-|
口口⑤③ |③-④-|
口⑥口② |--⑤-|
口口⑦① |⑥-⑦-|
9
⑥⑥口口 |①-②③|
①⑦⑦② |④-⑤-|
口⑧③⑧ |⑥-⑦-|
口④口⑤ |⑧---|
10
口④④④ |①-②-|
③⑤口口 |③-④-|
②口⑥口 |--⑤-|
①⑦口口 |⑥-⑦-|
11
口口⑥⑥ |①-②③|
②⑦⑦① |④-⑤-|
⑧③⑧口 |⑥-⑦-|
⑤口④口 |⑧---|
12
④④④口 |①-②-|
口口⑤③ |③-④-|
口⑥口② |--⑤-|
口口⑦① |⑥-⑦-|
13
⑥⑥口口 |①-②③|
①⑦⑦② |④-⑤-|
口⑧③⑧ |⑥-⑦-|
口④口⑤ |⑧---|
14
③⑤①口 |①---|
口③口① |②---|
②口③口 |③---|
口②④③ |④-⑤-|
15
口口口⑤ |①---|
口④口口 |--②-|
口口③口 |③-④-|
①口口② |--⑤-|
16
②④④口 |①---|
口口①口 |--②-|
口③口口 |③---|
口口口口 |④---|
17
⑤口口口 |①---|
口口④口 |--②-|
口③口口 |③-④-|
②口口① |--⑤-|
18
口④④② |①---|
口①口口 |--②-|
口口③口 |③---|
口口口口 |④---|
19
口口口⑦ |①---|
口⑤口口 |②-③-|
②口④口 |④-⑤-|
①⑥口③ |⑥-⑦-|
20
④⑥⑥口 |①-②-|
口口①口 |③-④-|
②⑤口口 |⑤---|
口口③口 |⑥---|
21
⑦口口口 |①---|
口口⑤口 |②-③-|
口④口② |④-⑤-|
③口⑥① |⑥-⑦-|
22
口口口④ |①-②-|
口①口口 |③-④-|
口口口②
口③口口

⑧⑦⑥口
口⑧⑦⑥
口口⑤口 |⑤-⑥-|
口口口口 |⑦-⑧-|
23
口⑥⑤④ |①---|
②口口口 |②---|
②②口① |③-④-|
③口①① |⑤-⑥-|
24
①口⑥⑥ |①---|
⑤口口④ |②---|
口③②口 |③-④-|
口③②口 |⑤-⑥-|
25
口口⑦口 |①-②-|
口⑥口口 |③---|
⑤口③② |④-⑤-|
①④③② |⑥-⑦-|
26
口①口口 |--①-|
口口②口 |②-③-|
⑥⑤④③ |--④-|
口⑥⑤④ |⑤-⑥-|
27
②②①① |①---|
④②⑥① |②---|
口⑤口口 |③-④-|
口口口③ |⑤-⑥-|
28
口口口⑥ |①---|
口口口⑤ |②---|
口口④① |③-④-|
②②③口 |⑤-⑥-|
29
口口①口 |①---|
③①④口 |②-③-|
口⑤口② |④---|
④口③口 |⑤---|
30
⑨①⑧口 |①-②③|
⑪⑦口⑥ |④⑤⑥⑦|
⑤⑪④⑩ |⑧-⑨-|
口③⑩② |⑩-⑪-|
31
口口口① |①---|
口口口口 |--②-|
口口口口 |③---|
②口口③ |----|
32
口①口口 |①---|
口口口口 |--②-|
口口口口 |③---|
口③②口 |----|
33
①口②口 |①-②-|
⑧③⑦口 |③-④-|
④⑥口⑤ |⑤-⑥-|
口口口口 |⑦-⑧-|
34
②口③① |①--②|
口口⑤口 |--③-|
口④口口 |--④-|
口③②① |⑤---|
35
①口⑦⑥ |①-②③|
口口⑧⑧ |④-⑤-|
⑤口⑥⑦ |⑥-⑦-|
口④③② |⑧---|
36
①④⑥⑤ |①-②③|
口口口口 |④-⑤⑥|
口口口口
口口③②

⑩口口口
⑨⑧⑨口
⑦⑩⑧⑩ |⑦-⑧-|
口⑦口口 |⑨-⑩-|
37
②口口① |----|
口口口口 |----|
口口口口 |--①-|
口口口口 |②---|
38
口④⑤⑥ |①---|
④⑤⑥③ |②---|
口口②③ |③-④-|
口①②③ |⑤-⑥-|
39
①③⑤⑤ |①---|
③④口口 |②---|
②①②③ |③---|
②①②③ |④-⑤-|
40
④口口口 |--①-|
⑤口③③ |②-③-|
⑥②②口 |--④-|
①①口口 |⑤-⑥-|
41
⑥③②① |--①-|
口口口口 |②-③-|
口口⑥口 |④---|
⑤口口④ |⑤-⑥-|
42
口⑥④口 |--①-|
②⑤②口 |②-③-|
④⑥口⑦ |④-⑤-|
口①口③ |⑥-⑦-|
43
③口③口 |①---|
口口口口 |②-③-|
口口②口
①口①口

口口口口
口④口④
口口口⑤ |④---|
⑥口口口 |⑤-⑥-|
44
⑦②⑥① |①-②-|
②⑤①口 |③-④-|
④口③口 |⑤-⑥-|
口④口③ |⑦---|
45
⑤⑦⑥④ |①-②-|
口⑦⑦口 |③-④-|
口③口① |--⑤-|
口口②口 |⑥-⑦-|
46
⑦⑥⑤口 |--①-|
口⑦⑥⑤ |②-③-|
①③④② |④-⑤-|
③①②④ |⑥-⑦-|
47
口口口① |①---|
③口口口 |②-③-|
口口⑤② |④---|
④口口口 |⑤---|
48
②④③① |①-②-|
⑤③④口 |③---|
⑤口口口 |④---|
⑤③④口 |⑤---|
49
①口口口 |①---|
口口口③ |②-③-|
口⑤②口 |④---|
口口口④ |⑤---|
50
①②③③ |①---|
口口③③ |②---|
④口②② |③-④-|
①①⑤口 |⑤---|
51
口②③⑤ |①---|
②④口口 |②---|
③①⑥口 |③-④-|
⑤口口口 |⑤-⑥-|
52
②②口口 |①-②-|
②口③口 |--③-|
口③口①
口口①口

口口④口
口口口④
⑤口口⑥ |--④-|
口⑤⑥口 |⑤-⑥-|
53
①口口② |①---|
③①口口 |②---|
口口口口 |③---|
口口口④ |④---|
54
⑤口口④ |①-②-|
口①口⑥ |③-④-|
口⑤②口 |⑤---|
口③⑥口 |⑥---|
55
口④③② |①---|
口⑦口口 |②-③-|
口口口口 |④-⑤-|
①⑤口⑥ |⑥-⑦-|
56
⑤⑤⑤⑤ |①-②-|
④口⑤① |③-④-|
②⑤③⑥ |⑤---|
口口⑥口 |⑥---|
57
口④④④ |①-②-|
③⑤口口 |③-④-|
②口⑥口 |--⑤-|
①⑦口口 |⑥-⑦-|
58
口口⑥⑥ |①-②③|
②⑦⑦① |④-⑤-|
⑧③⑧口 |⑥-⑦-|
⑤口④口 |⑧---|
59
④④④口 |①-②-|
口口⑤③ |③-④-|
口⑥口② |--⑤-|
口口⑦① |⑥-⑦-|
60
⑥⑥口口 |①-②③|
①⑦⑦② |④-⑤-|
口⑧③⑧ |⑥-⑦-|
口④口⑤ |⑧---|
61
口④④④ |①-②-|
③⑤口口 |③-④-|
②口⑥口 |--⑤-|
①⑦口口 |⑥-⑦-|
62
口口⑥⑥ |①-②③|
②⑦⑦① |④-⑤-|
⑧③⑧口 |⑥-⑦-|
⑤口④口 |⑧---|
63
④④④口 |①-②-|
口口⑤③ |③-④-|
口⑥口② |--⑤-|
口口⑦① |⑥-⑦-|
64
⑥⑥口口 |①-②③|
①⑦⑦② |④-⑤-|
口⑧③⑧ |⑥-⑦-|
口④口⑤ |⑧---|
65
③口①④ |①---|
口③④① |②---|
②④③口 |③---|
④②口③ |④---|
66
口①②口 |①---|
①③口② |②-③④|
②口④①
口②①口

⑧⑧口口
⑧口口口
口口口⑦ |⑤---|
⑥口口⑤ |⑥⑦⑧-|

accuracy: 99.5%
最終更新:2024年09月08日 16:22