アットウィキロゴ
「Sweet Love」
ときめきメモリアル Girl's Side 4th Heart

BASIC

Level: 2
BPM: 135
Notes: 165

1
口口口口 |----|
口口口口 |----|
口口口口 |----|
口口口口 |----|
2
口口口口 |----|
口口口口 |----|
口口口口 |----|
口口口口 |----|
3
口口口口 |①---|
口口口口 |----|
口口口口 |②---|
②口口① |----|
4
口口口口 |①---|
口①口口 |----|
口口①口 |----|
口口口口 |----|
5
②口口① |①---|
口口口口 |----|
口口口口 |②---|
口口口口 |----|
6
口口口口 |①---|
口②①口 |----|
口①②口 |②---|
口口口口 |----|
7
口口口口 |①---|
②口口① |----|
口口口口 |②---|
口口口口 |----|
8
口口口口 |①---|
口口口口 |----|
②口口① |②---|
口口口口 |----|
9
口口口口 |①---|
口口口口 |----|
口口口口 |②---|
②口口① |----|
10
口口口口 |①---|
口②口口 |----|
口口①口 |②---|
口口口口 |----|
11
③②①口 |①---|
口口口口 |②---|
口口口口 |③---|
口口口口 |----|
12
口口口口 |①---|
口①②③ |②---|
口口口口 |③---|
口口口口 |----|
13
口口口口 |①---|
口口口口 |②---|
③②①口 |③---|
口口口口 |----|
14
口口口口 |①---|
口口口口 |②---|
口口口口 |③---|
口①②③ |----|
15
口口口口 |①---|
①①口口 |----|
口口口口 |----|
口口口口 |----|
16
口口口口 |①---|
口口口口 |----|
①①口口 |----|
口口口口 |----|
17
口口口口 |①---|
口口口口 |----|
口②口口 |②---|
①口口口 |----|
18
口口口② |①---|
口口①口 |----|
口口口口 |②---|
口口口口 |----|
19
口口口口 |①---|
口口①① |----|
口口口口 |----|
口口口口 |----|
20
口口口口 |①---|
口口口口 |----|
口口①① |----|
口口口口 |----|
21
口口口口 |①---|
口口口口 |----|
口口②口 |②---|
口口口① |----|
22
②口口口 |①---|
口①口口 |----|
口口口口 |②---|
口口口口 |----|
23
口口口口 |①---|
①①口口 |----|
口口口口 |②---|
②②口口 |----|
24
口口口③ |①---|
口口②口 |②---|
口①口口 |③---|
口口口口 |----|
25
口口口口 |①---|
口口①① |----|
口口口口 |②---|
口口②② |----|
26
③口口口 |①---|
口②口口 |②---|
口口①口 |③---|
口口口口 |----|
27
口①①口 |①---|
口口口口 |----|
口②②口 |②---|
口口口口 |----|
28
口口口口 |①---|
口①①口 |----|
口口口口 |②---|
口②②口 |----|
29
口口口口 |①---|
口②②口 |----|
①口口① |②---|
口口口口 |----|
30
①口口① |①---|
口口口口 |----|
口口口口 |----|
口口口口 |----|
31
③②①口 |①---|
口口口口 |②---|
口口口口 |③---|
口口口口 |----|
32
口口口口 |①---|
口①②③ |②---|
口口口口 |③---|
口口口口 |----|
33
口口口口 |①---|
口口口口 |②---|
③②①口 |③---|
口口口口 |----|
34
口口口口 |①---|
口口口口 |②---|
口口口口 |③---|
口①②③ |----|
35
口口口口 |①---|
口①①口 |----|
口②②口 |②---|
口口口口 |----|
36
口①①口 |①---|
口口口口 |----|
口口口口 |②---|
口②②口 |----|
37
口口口④ |①---|
③口口口 |②---|
口口口② |③---|
①口口口 |④---|
38
③①①③ |①---|
口口口口 |----|
口②②口 |②---|
口口口口 |③---|
39
口口口口 |①---|
口口口口 |②---|
口口③① |③---|
口口④② |④---|
40
口口口③ |①---|
口②①口 |②---|
口①②口 |③---|
③口口口 |----|
41
口口口口 |①---|
口口口口 |②---|
①③口口 |③---|
②④口口 |④---|
42
③口口口 |①---|
口①②口 |②---|
口②①口 |③---|
口口口③ |----|
43
口口口口 |①---|
口口①① |----|
口口②② |②---|
口口口口 |----|
44
口口口口 |①---|
①①口口 |----|
②②口口 |②---|
口口口口 |----|
45
③口口④ |①---|
口①②口 |②---|
口②①口 |③---|
④口口③ |④---|
46
口口口口 |①---|
口①①口 |----|
口①①口
口口口口

口口口口
口口口口
口③口口 |②---|
口口②口 |③---|
47
口③③口 |①---|
②②①① |--②-|
口口口口 |----|
口口口口 |③---|
48
①口口① |①---|
口④④口 |②---|
③②②③ |③---|
口口口口 |④---|
49
①口口① |①---|
口口口口 |----|
口②口口 |②---|
口②②口 |----|

accuracy: 100%
最終更新:2022年05月21日 03:40