アットウィキロゴ
「Sweet Love」
ときめきメモリアル Girl's Side 4th Heart

ADVANCED

Level: 5
BPM: 135
Notes: 305

1
口口口口 |----|
口口口口 |----|
口口口口 |----|
口口口口 |----|
2
口口口口 |----|
口口口口 |----|
口口口口 |----|
口口口口 |----|
3
口口⑤口 |①---|
口④口口 |②---|
口口口口 |③---|
口①②③ |④-⑤-|
4
口①口口 |--①-|
口口②口 |②-③-|
口③口口 |----|
口口口口 |----|
5
①口口口 |①---|
口口口口 |----|
口口口口 |----|
口口口口 |----|
6
口口口口 |①---|
口口①口 |----|
②口③口 |②---|
口口口口 |③---|
7
口口⑤口 |①---|
口④口口 |②---|
口口口口 |③---|
口①②③ |④-⑤-|
8
口①口口 |--①-|
口口②口 |②-③-|
口③口口 |----|
口口口口 |----|
9
口口口口 |①---|
口口③口 |--②-|
②口口口 |----|
口口①口 |③---|
10
①②②口 |①---|
口口口口 |②---|
③口口③ |③---|
口④④口 |④---|
11
口口口口 |①---|
口①①口 |----|
口口口口 |----|
口口口口 |----|
12
口⑥③口 |①--②|
⑤口口② |--③-|
口④①口 |④--⑤|
口口口口 |--⑥-|
13
口口口口 |①---|
口①①口 |----|
口口口口 |----|
口口口口 |----|
14
口口口口 |--①-|
口③口口 |②-③-|
口口②口
口①口口

口④④口
口口口口
⑤口口⑤ |④--⑤|
口⑥⑥口 |--⑥-|
15
⑦口口④ |①-②-|
①⑥③① |③-④-|
口②⑤口 |--⑤-|
口口口口 |⑥-⑦-|
16
口①①口 |--①-|
口口口口 |--②-|
口③④口 |----|
口②②口 |③-④-|
17
①口口口 |--①-|
口⑦②口 |②-③-|
③口口⑥ |④-⑤-|
口⑤④口 |⑥-⑦-|
18
口口口口 |--①-|
口口①口 |②-③-|
口②口口
口口③口

⑥口口口
④口⑤口
口口口口 |--④-|
口口口口 |⑤-⑥-|
19
口口①口 |--①-|
口②⑦口 |②-③-|
口⑥③口 |④-⑤-|
口④⑤口 |⑥-⑦-|
20
口口口口 |----|
①口口口 |--①-|
口口④口 |②-③-|
③口②口 |--④-|
21
⑤③①口 |①-②-|
⑧⑥⑥⑧ |③-④-|
④②口口 |⑤-⑥-|
口⑦⑦口 |⑦-⑧-|
22
口口口口 |----|
口口口口 |----|
口口口口 |----|
口口口口 |----|
23
⑥口口③ |--①-|
口⑤②口 |②-③-|
口①④口 |--④-|
口口口口 |⑤-⑥-|
24
口①①口 |--①-|
口口口口 |--②-|
口③④口 |----|
口②②口 |③-④-|
25
①口⑥口 |--①-|
⑤口②口 |②-③-|
③口口口 |--④-|
口口④口 |⑤-⑥-|
26
⑤口口口 |--①-|
口①④口 |②-③-|
口口②口 |----|
口③口口 |④-⑤-|
27
口口①口 |--①-|
口②⑦口 |②-③-|
口⑥③口 |④-⑤-|
口④⑤口 |⑥-⑦-|
28
口口口口 |----|
①口口口 |--①-|
④口口④ |②-③-|
③口②口 |--④-|
29
口①①口 |①---|
③口口③ |②-③-|
口口口口
口②②口

口⑥口口
口口⑤口
口④口口 |--④-|
口口口口 |⑤-⑥-|
30
口口口口 |----|
口口口口 |----|
口②①口 |----|
口口口口 |①-②-|
31
⑦⑤③① |①-②-|
口口④② |③-④-|
口⑥口口 |--⑤-|
口口口口 |⑥-⑦-|
32
④口①③ |--①-|
⑤口口口 |②-③-|
口口②口 |----|
口口口口 |④-⑤-|
33
口②①口 |①---|
⑥③口⑥ |②-③-|
口⑤⑤口 |--④-|
口④④口 |⑤-⑥-|
34
⑥口口③ |①--②|
口⑤②口 |--③-|
④口口① |④--⑤|
口口口口 |--⑥-|
35
口①①口 |①---|
口口④④ |--②-|
口口⑤⑤ |③--④|
口②③③ |--⑤-|
36
口口①① |①---|
④④口口 |--②-|
⑤⑤口口 |③--④|
③③②口 |--⑤-|
37
口①④口 |①--②|
口口口口 |--③-|
⑥⑤②③ |④--⑤|
口口口口 |--⑥-|
38
①口口① |①---|
口③③口 |②-③-|
口口口口
②口口②

⑤口口⑤
口口口口
口④④口 |④---|
口口口口 |⑤---|
39
口口口口 |①-②-|
口口口口 |③-④-|
②口口④
口①③口

口⑤⑤口
⑥口口⑥
口口口口 |⑤---|
口⑦⑦口 |⑥-⑦-|
40
口口口③ |--①-|
⑤①②口 |②-③-|
口②①口 |--④-|
③④⑥口 |⑤-⑥-|
41
③口⑤③ |①---|
口④⑤① |②-③-|
②⑤④② |--④-|
口⑤口口 |--⑤-|
42
口③口口 |--①-|
②③⑤① |②-③-|
①④③② |----|
口口③口 |--④⑤|
43
口口③① |①--②|
口⑤口口 |--③-|
口口④② |④---|
口口口口 |--⑤-|
44
①③口口 |①--②|
口口口口 |--③-|
②④口口 |④---|
口⑤⑤口 |--⑤-|
45
⑤④②⑤ |①--②|
①③③① |--③-|
口②④口 |④--⑤|
⑥口口⑥ |--⑥-|
46
口口口口 |①---|
口①①② |----|
口口③口 |②--③|
口④口口 |--④-|
47
⑤口口⑤ |①-②-|
①③①③ |--③-|
口⑤⑤口 |④---|
②④②④ |⑤---|
48
⑥口口⑥ |--①-|
口②①口 |②-③-|
口④③口 |④--⑤|
口⑤⑤口 |--⑥-|
49
口③①口 |①---|
③③①① |----|
②②③③ |②---|
口②③口 |--③-|

accuracy: 100%
最終更新:2022年05月21日 03:52