アットウィキロゴ
「Sweet Love」
ときめきメモリアル Girl's Side 4th Heart

EXTREME

Level: 7
BPM: 135
Notes: 427

1
口口口口 |----|
口口口口 |----|
口口口口 |----|
口口口口 |----|
2
口口口口 |----|
口口口口 |----|
口口口口 |----|
口口口口 |----|
3
⑥口口⑦ |①-②-|
口②①口 |③-④-|
口④③口 |⑤---|
⑦⑤⑤⑥ |⑥-⑦-|
4
③口口口 |--①-|
口②①口 |②-③-|
口①②口 |----|
口口口③ |----|
5
口口口口 |①---|
口口①① |----|
口口口口 |----|
口口口口 |----|
6
口口口口 |①---|
口口口口 |----|
①①口口 |②---|
③③②② |③---|
7
口口口⑦ |①-②-|
口②①口 |③-④-|
⑥口口⑤ |⑤---|
口④③口 |⑥-⑦-|
8
①口口口 |--①-|
口口②口 |②-③-|
口③口口 |----|
口口口口 |----|
9
口口口口 |①---|
口口③③ |--②-|
②②口口 |----|
口口①① |③---|
10
①①②口 |①---|
口③口口 |②-③-|
口⑦④口 |④-⑤-|
口⑤⑥口 |⑥-⑦-|
11
⑤③③⑤ |①---|
口①①口 |②-③-|
②口口② |--④-|
口④④口 |⑤---|
12
口口口口 |①--②|
口④①口 |--③-|
⑤口口② |④--⑤|
口⑥③口 |--⑥-|
13
③口口② |①---|
口口口口 |②-③-|
口①①口
口口口口

口⑤④口
口口口口
口⑦⑥口 |④-⑤-|
口口口口 |⑥-⑦-|
14
②④④② |①-②-|
口①①口 |③-④-|
③口口③ |⑤--⑥|
⑦⑥⑤口 |--⑦-|
15
①①口② |①-②-|
口口③口 |③-④-|
口④口④
口口口口

口⑦口⑦
口口口口
口口⑥口 |--⑤-|
口口⑤口 |⑥-⑦-|
16
口④口口 |--①-|
①①口③ |--②-|
④口口口 |----|
②②③口 |③-④-|
17
①⑦口⑦ |--①-|
口②⑥口 |②-③-|
口⑤③口 |④-⑤-|
④口口口 |⑥-⑦-|
18
⑥口口⑥ |--①-|
口⑤口口 |②-③-|
②②④口 |--④-|
③③①口 |⑤-⑥-|
19
⑦⑦④口 |--①-|
⑤口⑥口 |②-③-|
②④口② |④-⑤-|
③①①③ |⑥-⑦-|
20
口口口口 |----|
口①口① |--①-|
②口②口 |②-③-|
口③④③ |--④-|
21
⑤③⑤① |①-②-|
④⑦②⑦ |③-④-|
口⑥口⑥ |⑤-⑥-|
⑧口⑧口 |⑦-⑧-|
22
口口口口 |----|
口口口口 |----|
口口口口 |----|
口口口口 |----|
23
①口口口 |--①-|
口②口口 |②-③-|
③口③口
口口口口

⑥口⑥口
口口口口
口⑤口口 |--④-|
口④口口 |⑤-⑥-|
24
口口④口 |--①-|
③口①① |--②-|
口口口④ |----|
口③②② |③-④-|
25
⑥口⑥口 |--①-|
口⑤①口 |②-③-|
口②④口 |--④-|
③口③口 |⑤-⑥-|
26
口口⑤口 |--①-|
④口口⑤ |②-③-|
口④②② |----|
口①③③ |④-⑤-|
27
口④⑦⑦ |--①-|
口⑥口⑤ |②-③-|
②口④② |④-⑤-|
③①①③ |⑥-⑦-|
28
口口口口 |----|
①口①口 |--①-|
口②口② |②-③-|
③④③口 |--④-|
29
⑥口⑥口 |①---|
③③①① |②-③-|
⑤④⑤④ |--④-|
口口②口 |⑤-⑥-|
30
①口①口 |----|
口②口口 |----|
口口口口 |----|
口口口口 |①-②-|
31
口口口口 |①-②-|
口口④④ |③-④-|
①口①口
③②③口

⑤口⑦⑦
口口口口
⑥⑥⑤口 |--⑤-|
口口口口 |⑥-⑦-|
32
口口口口 |--①-|
口①⑤口 |②-③-|
口④②④ |----|
口③口口 |④-⑤-|
33
口①口① |①---|
②②口口 |②-③-|
口口口口
③③口口

口⑤口口
口口口④
⑤⑥⑥口 |--④-|
口口④口 |⑤-⑥-|
34
④④①① |①--②|
口⑤②口 |--③-|
口⑥⑥口 |④--⑤|
⑤③③② |--⑥-|
35
口口①① |①---|
③口③① |--②-|
⑤④⑤④ |③--④|
②口②口 |--⑤-|
36
①口①口 |①---|
④③④③ |--②-|
口口口口 |③--④|
⑤②⑤② |--⑤-|
37
⑤④①② |①--②|
⑥口口③ |--③-|
①口口④ |④--⑤|
口①④口 |--⑥-|
38
口⑤②① |①---|
口②①② |②-③-|
口①②口 |④---|
口④口③ |⑤---|
39
口口口口 |①-②-|
③②①口 |③-④-|
口④口口
口口③口

口口⑦⑥
⑦口口口
⑤口⑤⑦ |⑤---|
⑥⑦口口 |⑥-⑦-|
40
③③口口 |--①-|
口②①口 |②-③-|
口①②口
口口③③

口口口口
④口⑥口
口⑤口口 |--④-|
口口口口 |⑤-⑥-|
41
③①③① |①---|
口口口口 |②-③-|
口口口口
口②口②

口⑤口⑥
⑤④口⑥
⑥口④⑤ |--④-|
⑥口⑤口 |⑤-⑥-|
42
①口②口 |--①-|
③③②口 |②-③-|
口②③③
口②口①

口口口口
口口口口
口⑤口口 |----|
口口④口 |--④⑤|
43
口口①① |①--②|
口口③③ |--③-|
⑤口⑥口 |④--⑤|
口口④② |--⑥-|
44
①①口口 |①--②|
③③口口 |--③-|
口口口口
②口口口

⑥口口口
口口口口
口⑥口⑤ |④--⑤|
口④口口 |--⑥-|
45
口②②① |①--②|
⑥③④⑥ |--③-|
口口①口 |④--⑤|
③⑤⑤④ |--⑥-|
46
口①①口 |①---|
口口口④ |----|
口口③口 |②--③|
口②口口 |--④-|
47
⑤③①⑤ |①-②-|
口⑤⑤口 |--③-|
①④④③ |④---|
口②②口 |⑤---|
48
口②②口 |--①-|
⑥⑤④⑥ |②-③-|
⑥④⑤⑥ |④--⑤|
①③③① |--⑥-|
49
口口①① |①---|
口口②口 |--②-|
口②口口
①①口口

③③④④
口口口④
④口口口 |③---|
④④③③ |--④-|

accuracy: 100%
最終更新:2022年05月21日 03:53