アットウィキロゴ
DEATH WORMHOLE
SOUND HOLIC feat.Nana Takahashi

BASIC

Level: 4
BPM: 137
Notes: 264

1
口口口口 |----|
口口口口 |----|
口口口口 |----|
口口口口 |----|
2
口口口口 |----|
口口口口 |----|
口口口口 |----|
口口口口 |----|
3
口口口口 |①---|
口①①口 |----|
口①①口 |----|
口口口口 |----|
4
口口口口 |----|
口口口口 |----|
口口口口 |----|
口口口口 |----|
5
口口口口 |①---|
口口口口 |----|
口口口口 |②---|
口②①口 |----|
6
口口口口 |①---|
口口口口 |----|
口②①口 |②---|
口口口口 |----|
7
口口口口 |①---|
口②①口 |----|
口口口口 |②---|
口口口口 |----|
8
口②①口 |①---|
口口口口 |----|
口口口口 |②---|
口口口口 |----|
9
①口口① |①---|
②口口② |----|
口口口口 |②---|
口口口口 |----|
10
口口口口 |①---|
口口口口 |----|
①口口① |②---|
②口口② |----|
11
口口口口 |----|
口口口口 |----|
口口口口 |----|
口口口口 |----|
12
口口口口 |①---|
①③口口 |②---|
②④口口 |③---|
口口口口 |④---|
13
口口①口 |①---|
口口口口 |----|
口口口口 |②---|
口口②口 |----|
14
口口口口 |①---|
口口③① |②---|
口口④② |③---|
口口口口 |④---|
15
口①口口 |①---|
口口口口 |----|
口口口口 |②---|
口②口口 |----|
16
口口口口 |①---|
①③口口 |②---|
②④口口 |③---|
口口口口 |④---|
17
口口①口 |①---|
口口口口 |----|
口口口口 |②---|
口口②口 |----|
18
口口口口 |①---|
口口③① |②---|
口口④② |③---|
口口口口 |④---|
19
口①口口 |①---|
口口口口 |----|
口口口口 |②---|
口②口口 |----|
20
口②口① |①---|
口口口口 |----|
口口口口 |②---|
口口口口 |----|
21
口口口口 |①---|
口②口① |----|
口口口口 |②---|
口口口口 |----|
22
口口口口 |①---|
口口口口 |②---|
口③②① |③---|
口口口口 |----|
23
口口口口 |①---|
口口口口 |②---|
口口口口 |③---|
口③②① |----|
24
②口①口 |①---|
口口口口 |----|
口口口口 |②---|
口口口口 |----|
25
口口口口 |①---|
②口①口 |----|
口口口口 |②---|
口口口口 |----|
26
口口口口 |①---|
口口口口 |②---|
③②①口 |③---|
口口口口 |----|
27
口口口口 |①---|
口口口口 |②---|
口口口口 |③---|
③②①口 |----|
28
口口口口 |①---|
①③口口 |②---|
②④口口 |③---|
口口口口 |④---|
29
口口①口 |①---|
口口②口 |②---|
口口③口 |③---|
口口④口 |④---|
30
口口口口 |①---|
口口③① |②---|
口口④② |③---|
口口口口 |④---|
31
口①口口 |①---|
口②口口 |②---|
口③口口 |③---|
口④口口 |④---|
32
②口①口 |①---|
口口口口 |----|
口口口口 |②---|
口口口口 |----|
33
口口口口 |①---|
②口①口 |----|
口口口口 |②---|
口口口口 |----|
34
口口口口 |①---|
口口口口 |②---|
③②①口 |③---|
口口口口 |----|
35
口口口口 |①---|
口口口口 |②---|
口口口口 |③---|
③②①口 |----|
36
口②口① |①---|
口口口口 |----|
口口口口 |②---|
口口口口 |----|
37
口口口口 |①---|
口②口① |----|
口口口口 |②---|
口口口口 |----|
38
口口口口 |①---|
口口口口 |②---|
口③②① |③---|
口口口口 |----|
39
口口口口 |①---|
口口口口 |②---|
口口口口 |③---|
口③②① |----|
40
口口口口 |①---|
口②②口 |----|
口①①口 |②---|
口口口口 |----|
41
口①①口 |①---|
口口口口 |----|
口口口口 |----|
口口口口 |----|
42
口口口口 |①---|
口口口口 |----|
②口口② |②---|
①口口① |----|
43
②口口② |①---|
①口口① |----|
口口口口 |②---|
口口口口 |----|
44
口①①口 |①---|
口口口口 |②---|
口口口口
口②②口

口⑤口口
口口④口
口③口口 |③-④-|
口口口口 |⑤---|
45
①口⑤① |①---|
口④口口 |②---|
口口③口 |③-④-|
②口口② |⑤---|
46
口⑥口口 |①---|
①口⑤① |②---|
②④口② |③-④-|
口口③口 |⑤-⑥-|
47
①口口① |①---|
口③③口 |②--③|
口口口口 |----|
②口口② |----|
48
口①①口 |①---|
口口口口 |②---|
口口口口
口②②口

口⑤口口
口口④口
口③口口 |③-④-|
口口口口 |⑤---|
49
①口⑤① |①---|
口④口口 |②---|
口口③口 |③-④-|
②口口② |⑤---|
50
口口口口 |①---|
口口口口 |②---|
③①③① |③---|
④②④② |④---|
51
口⑧口⑦ |①-②-|
口⑥口⑤ |③-④-|
口④口③ |⑤-⑥-|
口②口① |⑦-⑧-|
52
②口口② |----|
口①①口 |①---|
口①①口 |②---|
③口口③ |③---|
53
口口口口 |①---|
口口口口 |②---|
口③④口 |③---|
口①②口 |④---|
54
口③④口 |①---|
口①②口 |②---|
口口口口 |③---|
口口口口 |④---|
55
①口口① |①---|
口口口口 |--②-|
口②②口 |----|
口口口口 |----|
56
①口口① |①---|
口③③口 |②---|
②口口② |③---|
口④④口 |④---|
57
①口口① |①---|
口③③口 |②---|
②口口② |③---|
口④④口 |④---|
58
口①口口 |①---|
口口②口 |②---|
口③口口 |③---|
口口④口 |④---|
59
口口④口 |①---|
口③口口 |②---|
口口②口 |③---|
口①口口 |④---|
60
①口口② |①-②-|
③口口④ |③-④-|
⑤口口⑥ |⑤-⑥-|
⑦口口⑧ |⑦-⑧-|
61
口①①口 |①---|
口①①口 |----|
口口口口 |----|
口②②口 |②---|
62
口口口口 |①---|
①③口口 |②---|
②④口口 |③---|
口口口口 |④---|
63
口①①口 |①---|
口口口口 |----|
口口口口 |②---|
口②②口 |----|
64
口口口口 |①---|
口口③① |②---|
口口④② |③---|
口口口口 |④---|
65
口①①口 |①---|
口口口口 |----|
口口口口 |②---|
口②②口 |----|
66
口口口口 |①---|
①③口口 |②---|
②④口口 |③---|
口口口口 |④---|
67
口①①口 |①---|
口口口口 |----|
口口口口 |②---|
口②②口 |----|
68
口口口口 |①---|
口口③① |②---|
口口④② |③---|
口口口口 |④---|
69
口①①口 |①---|
③口口③ |----|
口口口口 |②---|
口②②口 |③---|

accuracy: 99.5%
最終更新:2024年09月08日 16:28