アットウィキロゴ
DEATH WORMHOLE
SOUND HOLIC feat.Nana Takahashi

ADVANCED

Level: 7
BPM: 137
Notes: 446

1
口口口口 |----|
口口口口 |----|
口口口口 |----|
口口口口 |----|
2
口口口口 |----|
口口口口 |----|
口口口口 |----|
口口口口 |----|
3
口口口口 |①---|
口①①口 |----|
口口口口 |----|
口口口口 |----|
4
口口口口 |----|
口口口口 |----|
口口口口 |----|
口口口口 |----|
5
口口口口 |①---|
口口②口 |----|
口①口口 |②---|
口口口口 |----|
6
口口口① |①---|
口口口口 |----|
口口口口 |----|
口口口口 |----|
7
口口口口 |①---|
口口口口 |②---|
④③②① |③---|
口口口口 |④---|
8
口口口口 |①---|
④③②① |②---|
口口口口 |③---|
口口口口 |④---|
9
口口③① |①---|
口口口口 |②---|
口口④② |③---|
口口口口 |④---|
10
③①口口 |①---|
口口口口 |②---|
④②口口 |③---|
口口口口 |④---|
11
口口口口 |①---|
口①①口 |----|
口口口口 |----|
口口口口 |----|
12
口口口口 |①-②-|
口①口口 |③-④-|
口口②口
口③④口

口口口口
口⑦口⑧
口⑤口⑥ |⑤-⑥-|
口口口口 |⑦-⑧-|
13
④口口① |--①-|
口⑤②口 |②-③-|
⑥口口③ |--④-|
口口口口 |⑤-⑥-|
14
口口口口 |①-②-|
口口①口 |③-④-|
口②口口
口④③口

口⑤口口
口口口口
口⑦⑥口 |--⑤-|
口口口口 |⑥-⑦-|
15
⑥口①⑥ |--①-|
口②③口 |②-③-|
⑤④④⑤ |④---|
口口口口 |⑤-⑥-|
16
口口口口 |①-②-|
口①口口 |③-④-|
口口②口
口③④口

⑤口口口
口⑥口口
⑦口口口 |--⑤-|
口口口口 |⑥-⑦-|
17
口口口① |--①-|
⑥口②⑥ |②-③-|
口④④③ |④---|
⑤口口⑤ |⑤-⑥-|
18
口口口口 |①-②-|
口口①口 |③-④-|
口②口口
口④③口

口⑤口口
口口⑥口
口⑦口口 |--⑤-|
口口口口 |⑥-⑦-|
19
④口口④ |①---|
口③③口 |②---|
②口口② |③---|
口①①口 |④---|
20
口口口口 |①---|
口口②① |----|
口口口口 |②---|
口口口口 |----|
21
口④⑤口 |①---|
②①口口 |----|
口口③口 |②-③-|
口口口口 |④⑤--|
22
⑤⑤口口 |--①-|
③①口口 |②-③-|
口口口口 |④--⑤|
④②口口 |----|
23
口口①口 |①---|
口②口口 |②---|
口口③口 |③---|
口④口口 |④---|
24
口口口口 |①---|
①②口口 |----|
口口口口 |②---|
口口口口 |----|
25
口⑤④口 |①---|
口口①② |----|
口③口口 |②-③-|
口口口口 |④⑤--|
26
口口⑤⑤ |--①-|
口口①③ |②-③-|
口口口口 |④--⑤|
口口②④ |----|
27
口①口口 |①---|
口口②口 |②---|
口③口口 |③---|
口口④口 |④---|
28
口口口口 |①---|
②②④④ |②---|
口口口口 |③---|
①①③③ |④---|
29
口③④口 |①-②-|
⑤口⑥口 |③-④-|
口①②口 |⑤---|
口⑤口⑥ |⑥---|
30
①①③③ |①---|
口口口口 |②---|
②②④④ |③---|
口口口口 |④---|
31
口⑤口⑥ |①-②-|
口①②口 |③-④-|
⑤口⑥口 |⑤---|
口③④口 |⑥---|
32
口口口口 |①---|
口口②① |----|
口口口口 |②---|
口口口口 |----|
33
口④⑤口 |①---|
②①口口 |----|
口口③口 |②-③-|
口口口口 |④⑤--|
34
⑤⑤口口 |--①-|
③①口口 |②-③-|
口口口口 |④--⑤|
④②口口 |----|
35
口口①口 |①---|
口②口口 |②---|
口口③口 |③---|
口④口口 |④---|
36
口口口口 |①---|
①②口口 |----|
口口口口 |②---|
口口口口 |----|
37
⑤口④口 |①---|
口口①② |----|
口③口口 |②-③-|
口口口口 |④-⑤-|
38
口口口② |--①-|
口④④口 |--②-|
①口口③ |--③-|
口口口口 |--④-|
39
②口口② |--①-|
口口口口 |②---|
口口口口
口①①口

口口口口
口口口口
口④③口 |③-④-|
口⑥⑤口 |⑤-⑥-|
40
口口口① |①---|
②口口口 |--②-|
口口口③ |----|
口口口口 |③---|
41
口口口口 |--①-|
口口④口 |----|
口③口口 |②-③-|
①口②口 |④---|
42
①口口口 |①---|
②口口口 |②---|
③口口口 |③---|
④口口口 |④---|
43
口④口口 |①---|
口③口口 |----|
口①①口 |②-③-|
口口②口 |④---|
44
①口口① |①---|
口口口口 |②---|
口口口口
②口口②

⑤口口⑤
口口③口
口③口口 |③④-⑤|
口口④口 |----|
45
⑧④④⑧ |①-②-|
②⑤⑦③ |③-④-|
③⑦⑤② |⑤⑥-⑦|
①⑥口① |--⑧-|
46
⑤②②⑤ |①---|
口口③口 |②---|
⑥③口⑥ |③④-⑤|
①口④① |--⑥-|
47
口⑦①口 |①-②-|
②⑥口⑤ |③④-⑤|
口口口口 |--⑥-|
口④③口 |⑦---|
48
①口口① |①---|
口口口口 |②---|
口口口口
②口口②

⑤口口⑤
口③口口
口口③口 |③④-⑤|
口④口口 |----|
49
⑦④④⑦ |①-②-|
③口⑤② |③-④-|
②⑤口③ |⑤⑥-⑦|
①口⑥① |----|
50
口①⑤口 |①-②-|
②口口⑥ |③-④-|
口③⑦口 |⑤-⑥-|
④口口⑧ |⑦-⑧-|
51
④口口④ |①---|
口③③口 |②---|
②口口② |③---|
口①①口 |④---|
52
⑤①①④ |①---|
口③③口 |②-③-|
②②②② |--④-|
口⑦⑥口 |⑤-⑥⑦|
53
口①③② |--①-|
口①①口 |--②③|
口口①口
口口口口

口口口口
④口⑦⑥
口口口口 |--④-|
口⑤口口 |⑤-⑥⑦|
54
①⑤④③ |--①-|
口口口口 |②-③④|
⑥②口口 |--⑤-|
口口⑦口 |⑥-⑦-|
55
口口③口 |①-②-|
口④②① |③-④-|
口③口口
口口口口

⑦⑤口口
⑥口⑧口
口口⑤口 |⑤-⑥-|
口口口口 |⑦-⑧-|
56
⑤⑤②② |①-②-|
口③口⑥ |--③-|
①①④④ |④-⑤-|
⑥口口口 |--⑥-|
57
⑤③③⑤ |①-②-|
①⑥⑥口 |③-④⑤|
口④④口 |----|
口②②① |--⑥-|
58
⑧⑦⑦⑧ |①-②-|
⑤口⑥口 |③-④-|
③口④口 |⑤-⑥-|
①口②口 |⑦-⑧-|
59
⑧⑦⑦⑧ |①-②-|
口⑤口⑥ |③-④-|
口③口④ |⑤-⑥-|
口①口② |⑦-⑧-|
60
口⑦口⑧ |①-②-|
⑤口⑥口 |③-④-|
口③口④ |⑤-⑥-|
①口②口 |⑦-⑧-|
61
④③③⑤ |--①-|
③口口③ |②-③-|
④①①⑤ |--④-|
口②②口 |⑤---|
62
口口口口 |①-②-|
口①口口 |③-④-|
口口②口
口③④口

口口口口
口⑦口⑧
口⑤口⑥ |⑤-⑥-|
口口口口 |⑦-⑧-|
63
④口口① |--①-|
口⑤②口 |②-③-|
⑥口口③ |--④-|
口口口口 |⑤-⑥-|
64
口口口口 |①-②-|
口口①口 |③-④-|
口②口口
口④③口

口⑤口口
口口口口
口⑦⑥口 |--⑤-|
口口口口 |⑥-⑦-|
65
⑥口①⑥ |--①-|
口②③口 |②-③-|
⑤④④⑤ |④---|
口口口口 |⑤-⑥-|
66
口口口口 |①-②-|
口①口口 |③-④-|
口口②口
口③④口

⑤口口口
口⑥口口
⑦口口口 |--⑤-|
口口口口 |⑥-⑦-|
67
口口口① |--①-|
⑥口②⑥ |②-③-|
口④④③ |④---|
⑤口口⑤ |⑤-⑥-|
68
口口口口 |①-②-|
口口①口 |③-④-|
口②口口
口④③口

口⑤口口
口口⑥口
口⑦口口 |--⑤-|
口口口口 |⑥-⑦-|
69
④口口④ |①---|
口③③口 |②---|
②口口② |③---|
口①①口 |④---|

accuracy: 99.5%
最終更新:2024年09月08日 16:28